(Rock) [LP] [24/192] Алиса - Коллекция (6 LP) - 1986-1993, WavPack (image+.cue)

 Статистика раздачи 
Размер: 9.9 ГБ   |  Зарегистрирован: 23 фев 2013, 15:31   |   .torrent скачан: 0 раз
Сидеров: 0  [ 0 байт/сек ]     Личеров: 0  [ 0 байт/сек ]  
  
Аватара пользователя
 
Раздал: 256.39 ГБ
Скачал: 432.89 ГБ
Ратио: 0.672
Сообщения: 213353
Стаж: 8 лет 8 месяцев 16 дней

Алиса - Коллекция (6 LP) - 1986-1993

Жанр: Rock
Год выпуска: 1986-1993
Страна-производитель: USSR, Russia
Аудио кодек: WavPack
Тип рипа: image+.cue
Формат записи: 24/192
Формат раздачи: 24/192
Продолжительность: 05:06:34
Источник оцифровки: Oleg39
Класс состояния винила: Mint
Устройство воспроизведения: Thorens TD124 mkII + SME 3012 Series II
Головка звукоснимателя: Van den Hul Colibri XGW
Предварительный усилитель: Yamaha A1 (Class A)
АЦП: E-MU 0404 USB (ASIO)
Программа-оцифровщик: WaveLab
Обработка: Сжатие в wv - Monkey's Audio 4.01, Теги - CUEBeautifier 0.4.31.2
#77Лейбл: Moroz Records
Страна-производитель: Russia
Год издания: 1993
Продолжительность: 00:42:04
Трек лист:
A1. Мы Вместе (2:42)
A2. Волна (3:43)
A3. Меломан (3:57)
A4. Доктор Буги (3:43)
A5. Плохой Rock'n'Roll (3:15)
A6. Моё Поколение (3:53)
B1. Экспериментатор (5:07)
B2. Ко Мне (6:23)
B3. Соковыжиматель (4:09)
B4. Энергия (5:13)

REM GENRE "New Wave, Rock"
REM DATE 1986
REM DISCID MR 9447
REM COMMENT "Moroz Records & Апрелевка Саунд (1993) LP; Needledrop By Oleg39"
PERFORMER "АлисА"
TITLE "Энергия"
FILE "AlisA - 1986 - Energiya [NLV 24-192].wv" WAVE
TRACK 01 AUDIO
TITLE "Мы Вместе"
PERFORMER "Алиса"
INDEX 01 00:00:00
TRACK 02 AUDIO
TITLE "Волна"
PERFORMER "Алиса"
INDEX 01 02:41:63
TRACK 03 AUDIO
TITLE "Меломан"
PERFORMER "Алиса"
INDEX 01 06:25:00
TRACK 04 AUDIO
TITLE "Доктор Буги"
PERFORMER "Алиса"
INDEX 01 10:21:70
TRACK 05 AUDIO
TITLE "Плохой Rock'n'Roll"
PERFORMER "Алиса"
INDEX 01 14:05:00
TRACK 06 AUDIO
TITLE "Моё Поколение"
PERFORMER "Алиса"
INDEX 01 17:20:08
TRACK 07 AUDIO
TITLE "Экспериментатор"
PERFORMER "Алиса"
INDEX 01 21:12:53
TRACK 08 AUDIO
TITLE "Ко Мне"
PERFORMER "Алиса"
INDEX 01 26:19:47
TRACK 09 AUDIO
TITLE "Соковыжиматель"
PERFORMER "Алиса"
INDEX 01 32:42:20
TRACK 10 AUDIO
TITLE "Энергия"
PERFORMER "Алиса"
INDEX 01 36:50:64
© 1993, Moroz Records
Запись студии Ленинградского городского рок-клуба 1985-1986 гг.
СП "Апрелевка Саунд Инк", заказ 109
#77Лейбл: Мелодия
Страна-производитель: USSR
Год издания: 1989
Продолжительность: 00:42:33
Трек лист:
A1. Время менять имена (2:51)
A2. Компромисс (4:12)
A3. Солнце встает (5:50)
A4. Эй, ты, там, на том берегу (2:52)
A5. Ветер перемен (4:54)
B1. Красное на черном (5:00)
B2. Воздух (5:50)
B3. Движение вспять (5:16)
B4. Земля (5:49)
REM GENRE "Rock"
REM DATE 1987
REM DISCID C60 28425 006
REM COMMENT "Мелодия (1989) LP; Needledrop By Oleg39"
PERFORMER "Алиса"
TITLE "БлокАда"
FILE "Alisa - 1987 - BlokAda [NLV 24-192].wv" WAVE
TRACK 01 AUDIO
TITLE "Время менять имена"
PERFORMER "Алиса"
INDEX 01 00:00:00
TRACK 02 AUDIO
TITLE "Компромисс"
PERFORMER "Алиса"
INDEX 01 02:50:50
TRACK 03 AUDIO
TITLE "Солнце встает"
PERFORMER "Алиса"
INDEX 01 07:03:00
TRACK 04 AUDIO
TITLE "Эй, ты, там, на том берегу"
PERFORMER "Алиса"
INDEX 01 12:52:50
TRACK 05 AUDIO
TITLE "Ветер перемен"
PERFORMER "Алиса"
INDEX 01 15:44:50
TRACK 06 AUDIO
TITLE "Красное на черном"
PERFORMER "Алиса"
INDEX 01 20:38:32
TRACK 07 AUDIO
TITLE "Воздух"
PERFORMER "Алиса"
INDEX 01 25:38:50
TRACK 08 AUDIO
TITLE "Движение вспять"
PERFORMER "Алиса"
INDEX 01 31:28:69
TRACK 09 AUDIO
TITLE "Земля"
PERFORMER "Алиса"
INDEX 01 36:44:50
© «МЕЛОДИЯ», 1989
Всесоюзная студия грамзаписи. Запись 1987 г.
РИЖСКИЙ ОРДЕНА ЗНАК ПОЧЕТА ЗАВОД ГРАМПЛАСТИНОК
ТИП. РЗГ «МЕЛОДИЯ» 1989 1616 43900
#77Лейбл: Мелодия
Страна-производитель: USSR
Год издания: 1990
Продолжительность: 00:42:43
Трек лист:
A1. Новый метод (2:54)
A2. Тыр тыр тыр (Тоталитарный рэп) (6:18)
A3. Шестой лесничий (6:03)
A4. Театр теней (5:28)
B1. Аэробика (3:37)
B2. Только этот день (7:31)
B3. Солнце за нас (3:58)
B4. Стерх (6:54)
REM GENRE "Rock"
REM DATE 1989
REM DISCID C60 28961 008
REM COMMENT "Мелодия (1989) LP; Needledrop By Oleg39"
PERFORMER "АлисА"
TITLE "Шестой Лесничий"
FILE "AlisA - 1989 - SHestoj Lesnichij [NLV 24-192].wv" WAVE
TRACK 01 AUDIO
TITLE "Новый метод"
PERFORMER "Алиса"
INDEX 01 00:00:00
TRACK 02 AUDIO
TITLE "тыр тыр тыр"
PERFORMER "Алиса"
INDEX 01 02:53:68
TRACK 03 AUDIO
TITLE "шестой лесничий"
PERFORMER "Алиса"
INDEX 01 09:12:10
TRACK 04 AUDIO
TITLE "театр теней"
PERFORMER "Алиса"
INDEX 01 15:15:00
TRACK 05 AUDIO
TITLE "аэробика"
PERFORMER "Алиса"
INDEX 01 20:43:00
TRACK 06 AUDIO
TITLE "только этот день"
PERFORMER "Алиса"
INDEX 01 24:19:50
TRACK 07 AUDIO
TITLE "солнце за нас"
PERFORMER "Алиса"
INDEX 01 31:50:35
TRACK 08 AUDIO
TITLE "стерх"
PERFORMER "Алиса"
INDEX 01 35:48:40
© ВТПО «ФИРМА МЕЛОДИЯ», 1989
Всесоюзная студия грамзаписи Запись 1989 г.
Апрелевский ордена Ленина завод грампластинок
1990 Зак. 57. Тираж 80000.
#77Лейбл: Not On Label (Алиса Self-released)
Страна-производитель: USSR
Год издания: 1991
Продолжительность: 01:19:58
Трек лист:
A1. Шабаш (8:36)
A2. Жар Бог Шуга (5:22)
A3. Без Паники (4:46)
B1. Лодка (6:29)
B2. Моё Поколение (4:02)
B3. Ко Мне (4:42)
B4. Стерх (5:49)
C1. Ветер водит хоровод (7:13)
C2. Чую гибель (4:56)
C3. Красное на черном (4:30)
C4. Все это рок-н-ролл (4:40)
D1. Сумерки (4:17)
D2. Шабаш 2 (4:52)
D3. Новая кровь (5:29)
D4. Все в наших руках (4:17)

REM GENRE "Rock"
REM DATE 1991
REM DISCID C90 31668-1
REM COMMENT "Алиса Рекордз (1991) LP; Needledrop By Oleg39"
PERFORMER "АлисА"
TITLE "Шабаш LP1"
FILE "AlisA - 1991 - SHabash LP1 [NLV 24-192].wv" WAVE
TRACK 01 AUDIO
TITLE "Шабаш"
PERFORMER "АлисА"
INDEX 01 00:00:00
TRACK 02 AUDIO
TITLE "Жар Бог Шуга"
PERFORMER "АлисА"
INDEX 01 08:35:69
TRACK 03 AUDIO
TITLE "Без Паники"
PERFORMER "АлисА"
INDEX 01 13:58:00
TRACK 04 AUDIO
TITLE "Лодка"
PERFORMER "АлисА"
INDEX 01 18:44:10
TRACK 05 AUDIO
TITLE "Моё Поколение"
PERFORMER "АлисА"
INDEX 01 25:12:48
TRACK 06 AUDIO
TITLE "Ко Мне"
PERFORMER "АлисА"
INDEX 01 29:14:50
TRACK 07 AUDIO
TITLE "Стерх"
PERFORMER "АлисА"
INDEX 01 33:56:46
REM GENRE "Rock"
REM DATE 1991
REM DISCID C90 31668-1
REM COMMENT "Алиса Рекордз (1991) LP; Needledrop By Oleg39"
PERFORMER "АлисА"
TITLE "Шабаш LP2"
FILE "AlisA - 1991 - SHabash LP2 [NLV 24-192].wv" WAVE
TRACK 01 AUDIO
TITLE "Ветер водит хоровод"
PERFORMER "Алиса"
INDEX 01 00:00:00
TRACK 02 AUDIO
TITLE "Чую гибель"
PERFORMER "Алиса"
INDEX 01 07:13:10
TRACK 03 AUDIO
TITLE "Красное на черном"
PERFORMER "Алиса"
INDEX 01 12:09:00
TRACK 04 AUDIO
TITLE "Все это рок-н-ролл"
PERFORMER "Алиса"
INDEX 01 16:39:00
TRACK 05 AUDIO
TITLE "Сумерки"
PERFORMER "Алиса"
INDEX 01 21:18:38
TRACK 06 AUDIO
TITLE "Шабаш 2"
PERFORMER "Алиса"
INDEX 01 25:35:14
TRACK 07 AUDIO
TITLE "Новая кровь"
PERFORMER "Алиса"
INDEX 01 30:26:63
TRACK 08 AUDIO
TITLE "Все в наших руках"
PERFORMER "Алиса"
INDEX 01 35:56:00
Концерт Москва, Лужники, 28.10.90
Ленинградский Завод Грампластинок
25.04.91. Тип. завода, Заказ 484 -0- 10000
#77Лейбл: Moroz Records
Страна-производитель: Russia
Год издания: 1993
Продолжительность: 00:47:03
Трек лист:
A1. Театр (3:48)
A2. Для тех, кто свалился с Луны (5:53)
A3. Республика (7:43)
A4. Камикадзе (4:47)
B1. Кибитка (6:50)
B2. Смутные дни (3:51)
B3. Плач (6:05)
B4. Пасынок звезд (8:06)
REM GENRE "Rock"
REM DATE 1993
REM DISCID MR 2011
REM COMMENT "Moroz Рекордз LP; Needledrop By Oleg39"
PERFORMER "АлисА"
TITLE "Для тех, кто свалился с Луны"
FILE "AlisA - 1993 - Dlya teh, kto svalilsya s Luny [NLV 24-192].wv" WAVE
TRACK 01 AUDIO
TITLE "Театр"
PERFORMER "Алиса"
INDEX 01 00:00:00
TRACK 02 AUDIO
TITLE "Для тех, кто свалился с Луны"
PERFORMER "Алиса"
INDEX 01 03:47:67
TRACK 03 AUDIO
TITLE "Республика"
PERFORMER "Алиса"
INDEX 01 09:41:00
TRACK 04 AUDIO
TITLE "Камикадзе"
PERFORMER "Алиса"
INDEX 01 17:23:70
TRACK 05 AUDIO
TITLE "Кибитка"
PERFORMER "Алиса"
INDEX 01 22:11:10
TRACK 06 AUDIO
TITLE "Смутные дни"
PERFORMER "Алиса"
INDEX 01 29:00:50
TRACK 07 AUDIO
TITLE "Плач"
PERFORMER "Алиса"
INDEX 01 32:52:00
TRACK 08 AUDIO
TITLE "Пасынок звезд"
PERFORMER "Алиса"
INDEX 01 38:56:50
СП "Апрелевка - Саунд Инк"
Тираж 50000
Не забывайте говорить Спасибо. Не уходите с раздачи!   
Торрент: Зарегистрирован [23 фев 2013, 15:31]
Статус:
Проверен
 
.torrent скачан: 0 раз
Хэш: f598fc55ec7c4f10a1daf376ebb98df59cfb875b
Размер: 9.9 ГБ (10 625 704 535 байт)
   Стать Автором раздачи
   
Цитата

Вернуться в Отечественная рок-музыка (оцифровки)

Кто сейчас на конференции

Сейчас эту тему просматривают: нет зарегистрированных пользователей и гости: 1