(Rock) [LP] [24/192] Сурганова И Оркестр ‎- Соль - 2007 / 2012, WavPack (image+.cue)

 Статистика раздачи 
Размер: 2.05 ГБ   |  Зарегистрирован: 07 мар 2013, 09:14   |   .torrent скачан: 0 раз
Сидеров: 0  [ 0 байт/сек ]     Личеров: 0  [ 0 байт/сек ]  
  
Аватара пользователя
 
Раздал: 256.39 ГБ
Скачал: 432.89 ГБ
Ратио: 0.672
Сообщения: 213355
Стаж: 8 лет 7 месяцев 16 дней

Сурганова И Оркестр ‎- Соль

Жанр: Rock
Год выпуска: 2007 / 2012
Лейбл: Мирумир ‎/ MIR100375
Страна-производитель: Russia
Аудио кодек: WavPack
Тип рипа: image+.cue
Формат записи: 24/192
Формат раздачи: 24/192
Продолжительность: 00:50:44
Треклист:
A1. Клоун (4:15)
A2. Уже не вернусь (4:46)
A3. Далеко (3:42)
A4. Не бойся милая (4:02)
A5. Птица певчая (3:45)
A6. Я теряю тебя (3:26)
B1. Нас еденицы (4:02)
B2. Среди огней (3:00)
B3. Семь городов (3:27)
B4. Где-то там (2:59)
B5. Время познаний (3:43)
B6. Белая (5:06)
B7. Рейс 612 (4:30)
Источник оцифровки: Oleg39
Код класса состояния винила: NM
Устройство воспроизведения: Thorens TD124 mkII + SME 3012 Series II
Головка звукоснимателя: Clearaudio Stradivari
Предварительный усилитель: Van den Hul The Grail (Accumulator driven version)
АЦП: E-MU 0404 USB (ASIO)
Программа-оцифровщик: WaveLab 6
Обработка: Сжатие в wv - Monkey's Audio 4.01, Теги - CUEBeautifier 0.4.31.2
REM GENRE "Rock"
REM DATE 2007
REM DISCID MIR 100375
REM COMMENT "МируМир; 2012, 180 Gr White Vinyl Germany Press, Needledrop By Oleg39"
PERFORMER "Сурганова и Оркестр"
TITLE "Соль"
FILE "Surganova i Orkestr - 2007 - Sol' [NLV 24-192].wv" WAVE
TRACK 01 AUDIO
TITLE "Клоун"
PERFORMER ""
INDEX 01 00:00:00
TRACK 02 AUDIO
TITLE "Уже не вернусь"
PERFORMER ""
INDEX 01 04:15:25
TRACK 03 AUDIO
TITLE "Далеко"
PERFORMER ""
INDEX 01 09:01:20
TRACK 04 AUDIO
TITLE "Не бойся милая"
PERFORMER ""
INDEX 01 12:43:00
TRACK 05 AUDIO
TITLE "Птица певчая"
PERFORMER ""
INDEX 01 16:44:66
TRACK 06 AUDIO
TITLE "Я теряю тебя"
PERFORMER ""
INDEX 01 20:29:66
TRACK 07 AUDIO
TITLE "Нас еденицы"
PERFORMER ""
INDEX 01 23:56:10
TRACK 08 AUDIO
TITLE "Среди огней"
PERFORMER ""
INDEX 01 27:58:46
TRACK 09 AUDIO
TITLE "Семь городов"
PERFORMER ""
INDEX 01 30:58:45
TRACK 10 AUDIO
TITLE "Где-то там"
PERFORMER ""
INDEX 01 34:25:47
TRACK 11 AUDIO
TITLE "Время познаний"
PERFORMER ""
INDEX 01 37:25:00
TRACK 12 AUDIO
TITLE "Белая"
PERFORMER ""
INDEX 01 41:07:66
TRACK 13 AUDIO
TITLE "Рейс 612"
PERFORMER ""
INDEX 01 46:14:00
Не забывайте говорить Спасибо. Не уходите с раздачи!   
Торрент: Зарегистрирован [07 мар 2013, 09:14]
Статус:
Проверен
 
.torrent скачан: 0 раз
Хэш: a77e0d32259b34c9121b7288873512025c588f26
Размер: 2.05 ГБ (2 198 818 800 байт)
   Стать Автором раздачи
   
Цитата
  • Похожие торренты
    Ответы
    Просмотры
    Последнее сообщение

Вернуться в Отечественная рок-музыка (оцифровки)

Кто сейчас на конференции

Сейчас эту тему просматривают: нет зарегистрированных пользователей и гости: 1