(Rock) [LP] [24/96] Мумий Тролль - Морская - 2012, FLAC (image+.cue)

 Статистика раздачи 
Размер: 1.05 ГБ   |  Зарегистрирован: 07 апр 2012, 13:39   |   .torrent скачан: 0 раз
Сидеров: 0  [ 0 байт/сек ]     Личеров: 0  [ 0 байт/сек ]  
  
Аватара пользователя
 
Раздал: 256.39 ГБ
Скачал: 432.89 ГБ
Ратио: 0.672
Сообщения: 213355
Стаж: 8 лет 7 месяцев 15 дней

Мумий Тролль - Морская

Жанр: Rock
Год выпуска: 2012
Лейбл: Мирумир
Аудио кодек: FLAC
Тип рипа: image+.cue
Формат записи: 24/192
Формат раздачи: 24/96
Продолжительность: 47:00.000 (270 720 000 samples)
Треклист:
A1. Вдруг ушли поезда 3:54
A2. Девочка 3:27
A3. Утекай 2:21
A4. Морская болезнь 4:43
A5. Владивосток 2000 2:42
A6. Роза Люксембург 2:26
A7. Кот кота 3:13
B1. Забавы 2:36
B2. Скорость 3:55
B3. Время тепла 3:11
B4. Делай меня точно 3:00
B5. Всецело всем 3:57
B6. Воспитанник упавшей звезды 4:32
B7. Новая луна апреля 3:03
#77Источник оцифровки: виниловая пластинка
Состояния винила: VG
Устройство воспроизведения: Excalibour RX 3000 (собственная разработка)
Предварительный усилитель: Excalibour PX 9000 (собственная разработка)
АЦП: M-Audio
Программа-оцифровщик: SF10
Обработка: несколько щелчков, нормализация, даунсэмплинг
Доп. информация: Вся информация, включая индексную карту, прошита в файл.
Код: Выделить всё
REM GENRE Rock
REM DATE 2012
REM COMMENT hi-res vinyl rip
PERFORMER "Мумий Тролль"
TITLE "Морская"
FILE "mumiy.troll.1997.morskaya.24.96.vinyl.rip.2012.flac" WAVE
  TRACK 01 AUDIO
    TITLE "Вдруг ушли поезда"
    INDEX 01 00:00:00
  TRACK 02 AUDIO
    TITLE "Девочка"
    INDEX 01 03:53:63
  TRACK 03 AUDIO
    TITLE "Утекай"
    INDEX 01 07:20:58
  TRACK 04 AUDIO
    TITLE "Морская болезнь"
    INDEX 01 09:42:14
  TRACK 05 AUDIO
    TITLE "Владивосток 2000"
    INDEX 01 14:25:11
  TRACK 06 AUDIO
    TITLE "Роза Люксембург"
    INDEX 01 17:06:68
  TRACK 07 AUDIO
    TITLE "Кот кота"
    INDEX 01 19:33:11
  TRACK 08 AUDIO
    TITLE "Забавы"
    INDEX 01 22:46:16
  TRACK 09 AUDIO
    TITLE "Скорость"
    INDEX 01 25:22:04
  TRACK 10 AUDIO
    TITLE "Время тепла"
    INDEX 01 29:17:26
  TRACK 11 AUDIO
    TITLE "Делай меня точно"
    INDEX 01 32:27:69
  TRACK 12 AUDIO
    TITLE "Всецело всем"
    INDEX 01 35:27:65
  TRACK 13 AUDIO
    TITLE "Воспитанник упавшей звезды"
    INDEX 01 39:24:40
  TRACK 14 AUDIO
    TITLE "Новая луна апреля"
    INDEX 01 43:56:70
Не забывайте говорить Спасибо. Не уходите с раздачи!   
Торрент: Зарегистрирован [07 апр 2012, 13:39]
Статус:
Проверен
 
.torrent скачан: 0 раз
Хэш: baaac8d126f6a9a85f577093cbbe6ee8f3c4b9e5
Размер: 1.05 ГБ (1 127 449 570 байт)
   Стать Автором раздачи
   
Цитата
  • Похожие торренты
    Ответы
    Просмотры
    Последнее сообщение

Вернуться в Отечественная рок-музыка (оцифровки)

Кто сейчас на конференции

Сейчас эту тему просматривают: нет зарегистрированных пользователей и гости: 1