(Rock) [LP] [24/96] Рок-группа "Мост" (Музыка Сергея Баневича, запись 1982 года) - 1983, APE (image+.cue), (Мелодия С60 18839-40)

 Статистика раздачи 
Размер: 702.05 МБ   |  Зарегистрирован: 30 июн 2011, 09:20   |   .torrent скачан: 0 раз
Сидеров: 0  [ 0 байт/сек ]     Личеров: 0  [ 0 байт/сек ]  
  
Аватара пользователя
 
Раздал: 256.39 ГБ
Скачал: 432.89 ГБ
Ратио: 0.672
Сообщения: 213355
Стаж: 8 лет 7 месяцев 8 дней

Рок-группа "Мост"
Жанр: Rock
Год выпуска: 1983
Лейбл: Мелодия
Страна-производитель: СССР
Аудио кодек: APE
Тип рипа: image+.cue
Формат записи: 32/192
Формат раздачи: 24/96
Продолжительность: 00:37:17
Источник оцифровки: автором раздачи
Код класса состояния винила: VG
Устройство воспроизведения: "Arija - 102"
Предварительный усилитель: "AMX - 100 (LTO®)"
АЦП: Juli@
Программа-оцифровщик: Adobe Audition
Обработка: удаление щелчков
Тэги в .cue sheet: прописаны
Сторона 1
01 - Ночной полет.
02 - Ау, улетевшее детство. (Слова Т.Калининой)
03 - Корабль.
04 - Ночь. (Слова В.Калининой)
05 - Дикие лебеди. (Слова В.Калининой)

Из к/ф "О тебе" (1-3)
Из телевизионной оперы "Ночной дилижанс" (4, 5)

Сторона 2
06 - Мойка, 27.
07 - Где деревня Ключики. (Слова Т.Калининой)
08 - Памяти летчика N. (Послушай, птах, слова Ю.Мориц)
09 - Зима наступает. (Слова Т.Калининой)
10 - Кто-то в поле. (Слова Т.Калининой)

Из телевизионного спектакля "Любовь октябренка Овечкина" (6, 7)
Из оперы "История Кая и Герды" (9, 10)

Аранжировки Валерия Бровко.
Солисты: Валентина Дегтярева (2, 8), Андрей Ефремов (4), Сергей Золотов (5),
Елена Дриацкая (5, 7), Виктор Кривонос (9, 10). Вокальная группа: Сергей Петров, Михаил Вязин, Сергей Золотов (5, 8, 10)

Рок-группа "Мост":
Руководитель Валерий Бровко - гитара, синтезатор
Виктор Домбровский - ударные
Анатолий Фомин и Валерий Вдовин - клавишные
Леонид Мусаев - бас-гитара
Владислав Анохин - бас-гитара
Сергей Баневич - клавишные

Звукорежиссер В.Динов. Редактор Е.Щербатова
Ленинградская студия грамзаписи. Записи 1982 года.
REM GENRE Rock
REM DATE 1983
REM COMENT Мелодия С60 18839-40 LP
TITLE Рок-группа Мост (Музыка Сергея Баневича, запись 1982 года)
PERFORMER Рок-группа Мост
FILE "Most group - 1983.ape" WAVE
TRACK 01 AUDIO
TITLE "Ночной полёт"
INDEX 01 00:00:00
TRACK 02 AUDIO
TITLE "Ау, улетевшее детство"
INDEX 01 03:48:42
TRACK 03 AUDIO
TITLE "Корабль"
INDEX 01 06:12:27
TRACK 04 AUDIO
TITLE "Ночь"
INDEX 01 10:18:09
TRACK 05 AUDIO
TITLE "Дикие лебеди"
INDEX 01 12:58:56
TRACK 06 AUDIO
TITLE "Мойка"
INDEX 01 19:30:07
TRACK 07 AUDIO
TITLE "Где деревня Ключики"
INDEX 01 21:32:35
TRACK 08 AUDIO
TITLE "Памяти летчика N (Послушай, птах)"
INDEX 01 24:08:56
TRACK 09 AUDIO
TITLE "Зима наступает"
INDEX 01 28:41:23
TRACK 10 AUDIO
TITLE "Кто-то в поле"
INDEX 01 32:24:63
Тридцатисекундные сэмплы с каждой стороны пластинки в папке раздачи.
Не забывайте говорить Спасибо. Не уходите с раздачи!   
Торрент: Зарегистрирован [30 июн 2011, 09:20]
Статус:
Проверен
 
.torrent скачан: 0 раз
Хэш: fc0a93fee058bb00804f634878de0d0a970e32f7
Размер: 702.05 МБ (736 149 183 байт)
   Стать Автором раздачи
   
Цитата
  • Похожие торренты
    Ответы
    Просмотры
    Последнее сообщение

Вернуться в Отечественная рок-музыка (оцифровки)

Кто сейчас на конференции

Сейчас эту тему просматривают: нет зарегистрированных пользователей и гости: 1