(Punk, Heavy Metal) [MC] [24/48] Сектор газа - "Восставший из ада" - 2000, FLAC (tracks+.cue), (Gala Records - GL 20220)

 Статистика раздачи 
Размер: 746.02 МБ   |  Зарегистрирован: 01 июл 2011, 15:58   |   .torrent скачан: 0 раз
Сидеров: 0  [ 0 байт/сек ]     Личеров: 0  [ 0 байт/сек ]  
  
Аватара пользователя
Главный редактор
Главный редактор
 
Раздал: 90.01 ТБ
Скачал: 3.78 ТБ
Ратио: 24.248
Сообщения: 284987
Стаж: 9 лет 3 месяца 22 дня
Откуда: Санкт-Петербург

Внимание! Тексты песен содержат ненормативную лексику!
Сектор газа - "Восставший из ада" (2000)

Жанр: Punk, Heavy Metal
Носитель: MC
Год выпуска: 2000
Лейбл: Gala Records (GL 20220)
Страна-производитель: Russia
Аудио кодек: FLAC
Тип рипа: tracks+.cue
Формат записи: 24/192
Формат раздачи: 24/48
Продолжительность: 00:57:55
Источник оцифровки: автором раздачи
Код класса состояния магнитоленты: VG
Реальное значение DRM: DR10
Устройство воспроизведения: AKAI GX 95MK2
Магнитная головка: 2xLC-OFC SGX
Предварительный усилитель: встроенный
АЦП: Juli@
Программа-оцифровщик: Adobe Audition
Обработка: удаление артефактов, частичная реставрация
Тэги в трэках и .cue sheet: прописаны
01. Демобилизация
02. Свадьба
03. Рога
04. Сельский Туалет
05. Грязная Кровь
06. Любовь Загробная
07. Черный Вурдалак
08. Истребители Вампиров
09. Соженная Ведьма
10. Ночь Страха
11. Мертвый В Доме
12. Святая Война
13. Восставший Из Ада
REM GENRE Punk, Heavy Metal
REM DATE 2000
REM COMMENT MC-Rip, Cassette, Album
PERFORMER "Сектор Газа"
TITLE "Восставший Из Ада"
FILE "01. Демобилизация.flac" WAVE
TRACK 01 AUDIO
TITLE "Демобилизация"
INDEX 01 00:00:00
FILE "02. Свадьба.flac" WAVE
TRACK 02 AUDIO
TITLE "Свадьба"
INDEX 01 00:00:00
FILE "03. Рога.flac" WAVE
TRACK 03 AUDIO
TITLE "Рога"
INDEX 01 00:00:00
FILE "04. Сельский туалет.flac" WAVE
TRACK 04 AUDIO
TITLE "Сельский туалет"
INDEX 01 00:00:00
FILE "05. Грязная кровь.flac" WAVE
TRACK 05 AUDIO
TITLE "Грязная кровь"
INDEX 01 00:00:00
FILE "06. Любовь загробная.flac" WAVE
TRACK 06 AUDIO
TITLE "Любовь загробная"
INDEX 01 00:00:00
FILE "07. Чёрный вурдалак.flac" WAVE
TRACK 07 AUDIO
TITLE "Чёрный вурдалак"
INDEX 01 00:00:00
FILE "08. Истребители вампиров.flac" WAVE
TRACK 08 AUDIO
TITLE "Истребители вампиров"
INDEX 01 00:00:00
FILE "09. Сожжённая ведьма (жертвам средневековой инквизиции посвящается).flac" WAVE
TRACK 09 AUDIO
TITLE "Сожжённая ведьма (жертвам средневековой инквизиции посвящается)"
INDEX 01 00:00:00
FILE "10. Ночь страха.flac" WAVE
TRACK 10 AUDIO
TITLE "Ночь страха"
INDEX 01 00:00:00
FILE "11. Мёртвый в доме.flac" WAVE
TRACK 11 AUDIO
TITLE "Мёртвый в доме"
INDEX 01 00:00:00
FILE "12. Святая война.flac" WAVE
TRACK 12 AUDIO
TITLE "Святая война"
INDEX 01 00:00:00
FILE "13. Восставший из ада.flac" WAVE
TRACK 13 AUDIO
TITLE "Восставший из ада"
INDEX 01 00:00:00
Код: Выделить всё
foobar2000 1.1.3 / Dynamic Range Meter 1.1.1
log date: 2016-04-13 21:09:50
--------------------------------------------------------------------------------
Analyzed: Сектор Газа / Восставший Из Ада
--------------------------------------------------------------------------------
DR         Peak         RMS     Duration Track
--------------------------------------------------------------------------------
DR10       0.00 dB   -10.77 dB      4:00 ?-Демобилизация
DR10       0.00 dB   -11.62 dB      4:31 ?-Свадьба
DR10       0.00 dB   -11.36 dB      3:19 ?-Рога
DR10       0.00 dB   -11.32 dB      2:53 ?-Сельский туалет
DR10       0.00 dB   -11.51 dB      4:10 ?-Грязная кровь
DR9        0.00 dB   -10.25 dB      4:35 ?-Любовь загробная
DR11       0.00 dB   -11.97 dB      4:39 ?-Чёрный вурдалак
DR10       0.00 dB   -10.86 dB      5:12 ?-Истребители вампиров
DR9        0.00 dB    -9.98 dB      5:47 ?-Сожжённая ведьма (жертвам средневековой инквизиции посвящается)
DR10       0.00 dB   -11.11 dB      6:06 ?-Ночь страха
DR10       0.00 dB   -10.77 dB      2:54 ?-Мёртвый в доме
DR8        0.00 dB    -8.96 dB      5:02 ?-Святая война
DR8        0.00 dB    -8.93 dB      4:47 ?-Восставший из ада
--------------------------------------------------------------------------------
Number of tracks:  13
Official DR value: DR10
Samplerate:        48000 Hz
Channels:          2
Bits per sample:   24
Bitrate:           1803 kbps
Codec:             FLAC
================================================================================

Выражаю благодарность уважаемому A.E.B.79 за оказанную техническую поддержку!

Оцифровка сделана и опубликована по просьбе уважаемого }{оттаб
Материал переоцифрован на другом (лучшем) оборудовании. Торрент перезалит 13.04.2016.
Не забывайте говорить Спасибо. Не уходите с раздачи!   
Торрент: Зарегистрирован [01 июл 2011, 15:58]
Статус:
Проверен
 
.torrent скачан: 0 раз
Хэш: 55bd49fd8d322348d22f001eaa1bfac4d943ccbc
Размер: 746.02 МБ (782 257 271 байт)
   Стать Автором раздачи
   
Цитата

Вернуться в Отечественная рок-музыка (оцифровки)

Кто сейчас на конференции

Сейчас эту тему просматривают: нет зарегистрированных пользователей и гости: 1