(HARD ROCK) [LP] [24/96] Angels & Demons 'OUTLAW' - 1991, FLAC (tracks+.cue)

 Статистика раздачи 
Размер: 983.92 МБ   |  Зарегистрирован: 01 окт 2011, 10:40   |   .torrent скачан: 0 раз
Сидеров: 0  [ 0 байт/сек ]     Личеров: 0  [ 0 байт/сек ]  
  
Аватара пользователя
Главный редактор
Главный редактор
 
Раздал: 90.01 ТБ
Скачал: 3.78 ТБ
Ратио: 24.248
Сообщения: 285101
Стаж: 9 лет 3 месяца 25 дней
Откуда: Санкт-Петербург

Angels & Demons 'OUTLAW'
Жанр: HARD ROCK
Год выпуска: 1991
Лейбл: SNC
Страна-производитель: CCCP
Аудио кодек: FLAC
Тип рипа: tracks+.cue
Формат записи: 24/96
Формат раздачи: 24/96
Продолжительность: 20.36 21.35
Треклист:
1. Don't Put Nets To A Girl
2. Hurricane Crazy Dance
3. Lonelyness Night Cry
4. We Don't Care A Straw
5. Wild Love
-----------------------------------
6. Video Invasion
7. Unlucky Monster Lover
8. Tomorrow I'll Be Tired Of You, Baby
9. This Cruel Crazy World
10. Don't Betray
Источник оцифровки: автором раздачи
Код класса состояния винила: NM
Устройство воспроизведения: Technics SL-1210MK2 / DENON DL-160
Предварительный усилитель: Technics SU-C800U
АЦП: TASCAM DR-100
Программа-оцифровщик: firmware 1.11
Обработка: Audacity 1.3 кодирование flac
Доп. информация: Диск куплен на молотке пользователем alexanderd.
REM GENRE Hard & Heavy
REM DATE 1991
REM COMMENT Rip by ipa
PERFORMER "Angels & Demons"
TITLE "OUTLAW"
FILE "OutLaw_a.flac" WAVE
TRACK 01 AUDIO
TITLE "Don't Put Nets to a Girl"
INDEX 01 00:04:12
TRACK 02 AUDIO
TITLE "Hurricane Crazy Dance"
INDEX 01 04:11:24
TRACK 03 AUDIO
TITLE "Lonelyness Night Cry"
INDEX 01 07:50:54
TRACK 04 AUDIO
TITLE "We Don't Care a Straw"
INDEX 01 12:27:48
TRACK 05 AUDIO
TITLE "Wild Love"
INDEX 01 15:37:48
FILE "OutLaw_b.flac" WAVE
TRACK 06 AUDIO
TITLE "Video Invasion"
INDEX 01 00:02:24
TRACK 07 AUDIO
TITLE "Unlucky Monster Lover"
INDEX 01 05:10:54
TRACK 08 AUDIO
TITLE "Tomorrow I'll Be Tired Of You, Baby"
INDEX 01 09:07:24
TRACK 09 AUDIO
TITLE "This Cruel Crazy World"
INDEX 01 14:23:30
TRACK 10 AUDIO
TITLE "Don't Betray"
INDEX 01 17:11:24
Не забывайте говорить Спасибо. Не уходите с раздачи!   
Торрент: Зарегистрирован [01 окт 2011, 10:40]
Статус:
Проверен
 
.torrent скачан: 0 раз
Хэш: bab5bbf5abab9e13295cabdd3dd2c2de3078b724
Размер: 983.92 МБ (1 031 714 807 байт)
   Стать Автором раздачи
   
Цитата

Вернуться в Отечественная рок-музыка (оцифровки)

Кто сейчас на конференции

Сейчас эту тему просматривают: нет зарегистрированных пользователей и гости: 1