(Rock) [LP] [24/192] Ансамбль Рок - Отель (запись 1981 года) - 1983, FLAC (image+.cue)

 Статистика раздачи 
Размер: 1.35 ГБ   |  Зарегистрирован: 29 июл 2013, 09:44   |   .torrent скачан: 0 раз
Сидеров: 0  [ 0 байт/сек ]     Личеров: 0  [ 0 байт/сек ]  
  
Аватара пользователя
Главный редактор
Главный редактор
 
Раздал: 90.01 ТБ
Скачал: 3.78 ТБ
Ратио: 24.248
Сообщения: 285991
Стаж: 9 лет 4 месяца 2 дня
Откуда: Санкт-Петербург

Ансамбль Рок - Отель

Жанр: Rock
Год выпуска: 1983
Лейбл: ВФГ "Мелодия" (Ленинградский ЗГП, С60 - 19321-22 002 )
Страна-производитель: СССР
Аудио кодек: FLAC
Тип рипа: image+.cue
Формат записи: 24/192
Формат раздачи: 24/192
Продолжительность: 00:34:46
Тэги в .cue: прописаны
Источник оцифровки: автором раздачи
Код класса состояния винила: VG
Устройство воспроизведения: Электроника ЭП 017С
Головка звукоснимателя: ГЗМ – 028 (Корвет)
Предварительный усилитель: AMX - 100 (LTO®)
АЦП: Juli@
Программа-оцифровщик: Adobe Audition CS6 5.0.2.
Обработка: без обработки
ВИА "Рок-Отель", год создания - 1978, руководитель - Иво ЛиннаТаллин. Эстонская ССР.
Коллектив был образован с целью познакомить эстонских телезрителей с первоосновами рок-н-ролла в серии телепередач "Сказания о музыке". Первое публичное выступление ансамбля состоялось 20 октября 1978 в Эстонском художественном институте (Таллин). Начальный состав: Иво Линна (вокал, гитара, ранее -"Мюстикуд", "Апельсин"), Андрее Пыльдроо (соло-гитара, ранее - в "Руе", "Орнаменте", "Психо", "Радаре", "Магнетик Бэнд"), Маргус Каппель (клавишные, ранее - в"Руе"),Хейго Мирка (бас, ранее - в "Оптимистах", "Психо"), Харри Кырвитс (ударные, ранее - в "Оптимистах", "Микронах", "Электре", "Омеге", "Балтике", "Веге", "Апельсине", "Радаре"). В 1983 уехавшего в Швецию Пыльдроо заменил Тиит Кырвитс (ранее - в "Оптимистах", "Микронах", "Балтике", "Теравик", "Ку-керпиллид"). "Рок-Отель" быстро обрел свою аудиторию, и в 1980-1983 признан самым популярным ансамблем Эстонии.
Рядом с рок-н-роллами в репертуаре коллектива - кантри-рок, буги-вуги, ритм-энд-блюз. В 1986 к ансамблю присоединились Тармо Маркен и Яан Раяла (труба), Вайно Пыллу (тромбон), Юлари Кирсипуу и Сулев Соммер (саксофон), Александр Вилипере (ударные). Солист И.Линна неоднократно отмечался как самый популярный певец в республике, а в 1987 получил звание заслуженного артиста ЭССР. Ансамбль участвовал в Днях музыки в Тарту (1981, 1985, 1986, 1988), где в 1985 и 1986 был признана лучшим коллективом фестиваля по опросам зрителей, а в 1986 получила главную награду. 0coбенность тартусских программ "Рок-Отеля" - цельное, стилизованное рок-н-ролльное шоу. В 1988 ансамбль принимал участие в международном фестивале "Рок-лето" (Таллин).
"Рок-Отель" выступал практически во всех крупных городах страны, в Финляндии, Норвегии, ЧССР. Анголе, Лаосе. Фирма "Мелодия" выпустила два диска-гиганта ансамбля.

01. Сумерки
Б. Рам - эстонский текст Х. Капмо, Х. Мирки

02. Игра в карты
Н. Миллер - эстонский текст Х. Капмо, Х. Мирки
03. Ночь
Н. Миллер - эстонский текст Х. Капмо, Х. Мирки
04. Мари, Мари
Н. Миллер - эстонский текст Х. Кяо, Х. Мирки
05. Галстук
Дж. Лейбер - Х. Мирка
06. Плыву на остров мечты
Г. Паркер - эстонский текс Х. Кяо
07. Скандал в семье
Х. Дональдсон - эстонский текст Х. Кармо
08. Время превращает нас
К. Халонен - Р. Линна
09. Рок Рокабилли
А. Пылдроо, Х. Мирка - Х. Кяо, Х. Мирка
10. Часы
К. Хенли - Х. Мирка
11. Притворство
Б. Спрингстон - эстонский текст Х. Мирки
На эстонском языке.
#7701. Videvik
(B. Ram - H. Karmo, H. Mirka)

02. Kuidas Läks Sul See Mäng
(N. Miller - H. Karmo, H. Mirka)
03. Aita Mööda Saata Öö
(K. Kristofferson - H. Karmo, H. Mirka)
04. Marie, Marie
(D. Alvin - H. Käo, H. Mirka)
05. Kikilips
(J. Leiber - H. Mirka)
06. Kroolin Nagu Jaksan
(G. Parker - H. Käo)
07. Skandaal Perekonnas
(H. Donaldson - H. Karmo)
08. Aeg Meid Muutnud On
(K. Halonen - R. Linna)
09. Rokabilly Rock
(A. Poldroo, H. Mirka - H. Käo, H. Mirka)
10. Kell
(K. Henley - H. Mirka)
11. Teesklus
(B. Springston - H. Mirka)

Код: Выделить всё
REM GENRE Rock
REM DATE 1983
REM COMENT Мелодия (С60 - 19321-22 002), LP, Vinyl, Album, USSR
TITLE Ансамбль Рок-Отель (запись 1981 г.)
PERFORMER Рок-Отель
FILE "01. Rock-Hotel Side 1.flac" WAVE
  TRACK 01 AUDIO
    TITLE "01. Сумерки"
    INDEX 01 00:00:00
  TRACK 02 AUDIO
    TITLE "02. Игра в карты"
    INDEX 01 03:18:39
  TRACK 03 AUDIO
    TITLE "03. Ночь"
    INDEX 01 06:28:06
  TRACK 04 AUDIO
    TITLE "04. Мари, Мари"
    INDEX 01 10:58:09
  TRACK 05 AUDIO
    TITLE "05. Галстук"
    INDEX 01 13:40:43
  TRACK 06 AUDIO
    TITLE "06. Плыву на остров мечты"
    INDEX 01 16:11:27
FILE "02. Rock-Hotel Side 2.flac" WAVE
  TRACK 07 AUDIO
    TITLE "07. Скандал в семье"
    INDEX 01 00:00:00
  TRACK 08 AUDIO
    TITLE "08. Время превращает нас"
    INDEX 01 02:40:20
  TRACK 09 AUDIO
    TITLE "09. Рок рокаббилли"
    INDEX 01 06:42:05
  TRACK 10 AUDIO
    TITLE "10. Часы"
    INDEX 01 09:06:15
  TRACK 11 AUDIO
    TITLE "11. Притворство"
    INDEX 01 12:00:17
В папке раздачи.

Большое человеческое спасибо уважаемому boyhunt за техническую поддержку!

Не забывайте говорить Спасибо. Не уходите с раздачи!   
Торрент: Зарегистрирован [29 июл 2013, 09:44]
Статус:
Проверен
 
.torrent скачан: 0 раз
Хэш: d2f07370a39af1fe5a09796ca887162c03ea3814
Размер: 1.35 ГБ (1 454 079 038 байт)
   Стать Автором раздачи
   
Цитата

Вернуться в Отечественная рок-музыка (оцифровки)

Кто сейчас на конференции

Сейчас эту тему просматривают: нет зарегистрированных пользователей и гости: 1