(Rock/New Wave) [LP] [24/192] Boris Grebenshikov/Борис Гребенщиков - Radio Silence - 1989 (Promo), FLAC (image+.cue)

 Статистика раздачи 
Размер: 1.85 ГБ   |  Зарегистрирован: 13 мар 2013, 17:14   |   .torrent скачан: 0 раз
Сидеров: 0  [ 0 байт/сек ]     Личеров: 0  [ 0 байт/сек ]  
  
Аватара пользователя
Главный редактор
Главный редактор
 
Раздал: 90.01 ТБ
Скачал: 3.78 ТБ
Ратио: 24.248
Сообщения: 285975
Стаж: 9 лет 4 месяца 1 день
Откуда: Санкт-Петербург

Boris Grebenshikov/Борис Гребенщиков - Radio Silence (Promo)
Жанр: Rock
Стиль: New Wave
Год выпуска: 1989
Лейбл: CBS – 465083 1
Страна-производитель: Holland
Аудио кодек: FLAC
Тип рипа: image+.cue
Формат записи: 24/192
Формат раздачи: 24/192
Продолжительность: 00:47:27
Треклист:
A1 Radio Silence
A2 The Postcard
A3 The Wind
A4 The Time
A5 Winter
A6 That Voice Again
B1 Young Lions
B2 Fields Of My Love
B3 Death Of King Arth
B4 Real Slow Today
B5 Mother
B6 China
Acoustic Guitar - Boris Grebenshikov (tracks: A3, B2)
Backing Vocals - David A. Stewart (tracks: B2), John Stewart (tracks: B2), Kenny Smith (3) (tracks: B2), Siobhan Stewart (tracks: A4, B2)
Bass - Chucho Merchan (tracks: B1), Sasha Titov (tracks: A3, A4, B2 to B5)
Drums - David A. Stewart (tracks: A3), Olle Romo (tracks: A1 to A6, B1 to B5), Piotr Troshenkov* (tracks: B3)
Flute - Andrei Romanov (tracks: B3)
Guitar - David A. Stewart (tracks: A1, A2, A4, A6, B1, B4, B5), Boris Grebenshikov (tracks: A1, A2, A5, B1, B3 to B6)
Keyboards - Patrick Seymour (tracks: A4, A6. B2)
Mastered By - Bob Ludwig
Mixed By-Alan Moulder (tracks: A2, A3, A6, B1, B4), David A. Stewart (tracks: A1 to A5, B1 to B3), Manu Guiot (tracks: A4, A5, B2, B3, B5, B6), Boris Grebenshikov (tracks: A6)
Oboe - Michael Kamen (tracks: A3)
Other [Megaphone] - Derek (tracks: B2)
Percussion - Ray Cooper (tracks: B2, B4, B5)
Piano - Ray Cooper (tracks: B5)
Producer - David A. Stewart
Trumpet - Dave Plews (tracks: B4, B5)
Violin - Darryl Way (tracks: A6, B2)
Vocals - Annie Lennox (tracks: A3, B4, B5), Charlie Wilson (tracks: B4), Chrissie Hynde (tracks: B4, B5), Harry Dean Stanton (tracks: B2), Janice Jamison (tracks: B4), Andrei Romanov (tracks: B3), Boris Grebenshikov, Seva Gakkel (tracks: B3)
Vocals [Haunting] - Billy McKenzie (tracks: A6)
Промо версия альбома (Unverkäufliches Muster - not for resale). Издание отличает высокое качество винила (практически полное отсутствие статики и шумов, характерных даже для минтовых винилов) и возможно поэтому более сбалансированное и детальное звучание, по сравнению с обычной печатью.
Источник оцифровки: оцифровано Crimson74
Код класса состояния винила: Mint
Устройство воспроизведения: Technics SP-10 MK2
Головка звукоснимателя: Audio Technica ML180
Предварительный усилитель: Kora 3T SE MM
АЦП: Edirol R-44
Обработка: отсутствует
foobar2000 1.1.8 / Dynamic Range Meter 1.1.1
log date: 2013-03-13 21:30:37
--------------------------------------------------------------------------------
Analyzed: Boris Grebenshikov / Radio Silence
--------------------------------------------------------------------------------
DR Peak RMS Duration Track
--------------------------------------------------------------------------------
DR13 -4.42 dB -18.99 dB 3:57 01-Radio Silence
DR13 -4.39 dB -20.31 dB 4:34 02-The Postcard
DR12 -7.85 dB -22.80 dB 4:37 03-The Wind
DR15 -4.16 dB -21.07 dB 4:22 04-The Time
DR11 -12.51 dB -29.43 dB 3:19 05-Winter
DR13 -5.89 dB -20.26 dB 5:38 06-That Voice Again
DR13 -3.22 dB -17.43 dB 3:40 07-Молодые львы (Young Lions)
DR12 -4.39 dB -18.69 dB 4:00 08-Fields Of My Love
DR11 -11.91 dB -26.27 dB 2:46 09-Death Of King Arthur
DR13 -3.01 dB -19.53 dB 4:42 10-Real Slow Today
DR14 -2.80 dB -18.47 dB 3:59 11-Mother
DR13 -14.00 dB -32.63 dB 1:51 12-Китай (China)
--------------------------------------------------------------------------------
Number of tracks: 12
Official DR value: DR13
Samplerate: 192000 Hz
Channels: 2
Bits per sample: 24
Bitrate: 5234 kbps
Codec: FLAC
================================================================================
В папке Samples находятся минутные фрагменты последних треков с каждой стороны.
Не забывайте говорить Спасибо. Не уходите с раздачи!   
Торрент: Зарегистрирован [13 мар 2013, 17:14]
Статус:
Проверен
 
.torrent скачан: 0 раз
Хэш: 528e0066bf59d794c2a936be0c7200c485b9751f
Размер: 1.85 ГБ (1 983 626 165 байт)
   Стать Автором раздачи
   
Цитата

Вернуться в Отечественная рок-музыка (оцифровки)

Кто сейчас на конференции

Сейчас эту тему просматривают: нет зарегистрированных пользователей и гости: 1