(Rock) Машина Времени - День рождения (1977-1978) - 2010, FLAC (image+.cue), lossless

 Статистика раздачи 
Размер: 688.89 МБ   |  Зарегистрирован: 20 июн 2012, 19:25   |   .torrent скачан: 0 раз
Сидеров: 0  [ 0 байт/сек ]     Личеров: 0  [ 0 байт/сек ]  
  
Аватара пользователя
Главный редактор
Главный редактор
 
Раздал: 90.01 ТБ
Скачал: 3.78 ТБ
Ратио: 24.248
Сообщения: 285171
Стаж: 9 лет 3 месяца 26 дней
Откуда: Санкт-Петербург

Машина Времени - День рождения

Исполнитель: Машина Времени
Альбом: День рождения
Тип релиза: Compilation
Страна: СССР
Лейбл: Студия А
Дата выпуска: 1977/78
Жанр: Rock
Формат: FLAC+CUE
Битрейт: 885-927 kbps
Продолжительность: 46:22+45:09
Источник: CD
Коврики в наличии
Цитата:
Цитата:
В основу этого компиляционного магнитоальбома легла Запись на Автодоре, но это не тот магнитоальбом который представлен здесь — Запись на Автодормехбазе №6. Дело в том, что на Автодоре было записано несколько сессий (две или три, точно сейчас сказать не можем), так вот в народ пошла одна версия, а в рука А.В. Тропилло попал тот вариант в котором между песнями слышны разговоры музыкантов, подстройка инструментов и другие звуки которые отсутствуют в Записи на Автодормехбазе №6. Эту запись он дополнил четырьмя песнями с другого знаменитого магнитоальбома Запись в студии ГИТИС'а. Всё остальное описал сам автор компиляции выше. Кстати в конце записи вы услышите и его слова об этом магнитоальбоме, ну, а в одном месте вы услышите щелчок от ножниц которыми Андрей Владимирович резал ленту…
Так что не упустите возможность приобрести эту уникальную запись, которая является вожделенной изюминкой для любого коллекционера.

Группа Машина Времени, знаменитая запись — День рождения, по утверждениям Андрея Тропилло это первый магнитоальбом на просторах России, а точнее, тогда ещё, СССР. Вот что он сам рассказал по этому поводу:Цитата:
Цитата:
…Кстати, интересно, что я сначала тиражировал записи, а только потом стал делать альбомы. Я засёк, что должна быть альбомная форма — идеальный самозарождающийся способ коммуникации. Одной из первых была «Машина времени» — это были даже не мои записи. Я просто взял записи, которые привозил Макаревич (я тогда проводил подпольные сейшены), и по-своему их выправил на довольно фиговом оборудовании, корректируя тембрально… Я сделал первую такую подборку, назвал её «День рождения», взял у музыкантов фотографии, сделал монтаж, на свой страх и риск растиражировал эту плёнку в количестве 200 штук — и пустил по городу. И я уже подумывал как бы себя отразить? Но там ещё особенно нечего было отражать, потому, что я сделал эту запись из ничего, хотя продюсером меня уже можно было назвать. Я просто купил запись, преобразовал и даже не пытался сделать на этом деньги. Мне было просто интересно — как это произойдёт. Ну и всё произошло… Это был уже «альбом»!
Я считаю, что это лично моё достижение — слово «альбом». Никто его до меня не употреблял, а говорили просто «концерт», в Сибири и сейчас так говорят. Постепенно мне удалось вбить это слово в головы, даже самые тупые. Правда, на это потребовалось 4 года.

01. 01. Белый день [00:04:40]
02. 02. Посвящение одному хорошему знакомому [00:03:11]
03. 03. Вот, что странно... [00:03:01]
04. 04. Блюз о безусловном вреде пьянства [00:03:51]
05. 05. Гимн забору [00:02:40]
06. 06. Телега [00:02:39]
07. 07. Песня о скрипаче [00:02:34]
08. 08. Посвящение Стиви Уандеру [00:04:35]
09. 09. Я поверить был бы рад... [00:03:43]
10. 10. День рождения [00:03:51]
11. 11. Марионетки [00:04:03]
12. 12. Девятый вал [00:04:44]
13. 13. Битое стекло [00:02:43]
02. [00:46:22]
01. 01. Штиль [00:03:49]
02. 02. Песня о капитане [00:04:36]
03. 03. Шок [00:02:59]
04. 04. Песня солдата [00:02:58]
05. 05. Где б найти подругу жизни [00:03:27]
06. 06. Я думал… [00:04:15]
07. 07. Ты или я [00:05:14]
08. 08. Маски [00:04:45]
09. 09. Люди в лодках [00:03:26]
10. 10. Странный музей [00:03:14]
11. 11. Наш дом [00:04:02]
12. 12. День гнева [00:01:59]
13. 13. Заключение А.В. Тропилло [00:00:19]
02. [00:45:09]
V0.99 prebeta 5 from 4. May 2009
Отчёт EAC об извлечении, выполненном 20. июня 2012, 18:36
Машина времени / День рождения
Дисковод: ATAPI iHAS524 B Adapter: 4 ID: 0
Режим чтения: :
: Да
: Да
: Нет
Коррекция смещения при чтении: : 6
Способность читать области Lead-in и Lead-out : Нет
Заполнение пропущенных сэмплов тишиной : Да
Удаление блоков с тишиной в начале и конце : Нет
: Да
: Встроенный Win32-интерфейс для Win NT/2000
Выходной формат: : Внутренние WAV-операции
: 44.100 Гц; 16 бит; стерео
Смещение при сжатии: : 0
| | | |
--------------------------------------------
1 | 0:00.00 | 4:40.21 | 0 | 21020
2 | 4:40.21 | 3:11.33 | 21021 | 35378
3 | 7:51.54 | 3:01.62 | 35379 | 49015
4 | 10:53.41 | 3:51.66 | 49016 | 66406
5 | 14:45.32 | 2:40.00 | 66407 | 78406
6 | 17:25.32 | 2:39.70 | 78407 | 90401
7 | 20:05.27 | 2:34.44 | 90402 | 101995
8 | 22:39.71 | 4:35.60 | 101996 | 122680
9 | 27:15.56 | 3:43.22 | 122681 | 139427
10 | 30:59.03 | 3:51.72 | 139428 | 156824
11 | 34:51.00 | 4:03.54 | 156825 | 175103
12 | 38:54.54 | 4:44.18 | 175104 | 196421
13 | 43:38.72 | 2:43.59 | 196422 | 208705
Характеристики диапазона извлечения и сообщения об ошибках
Выбранный диапазон
Имя файла L:\МВ\Машина времени - День рождения.wav
Пиковый уровень 95.9 %
Качество диапазона 100.0 %
CRC копии 4FA8C247
Копирование... OK
Ошибок не произошло
Конец отчёта
Большое спасибо BTM2, сподвигнувшего меня на эту раздачу!
Не забывайте говорить Спасибо. Не уходите с раздачи!   
Торрент: Зарегистрирован [20 июн 2012, 19:25]
Статус:
Проверен
 
.torrent скачан: 0 раз
Хэш: e265891cd8dcf94ad0d09ac9fe7aa7d68d607c5a
Размер: 688.89 МБ (722 349 086 байт)
   Стать Автором раздачи
   
Цитата

Вернуться в Отечественная рок-музыка (оцифровки)

Кто сейчас на конференции

Сейчас эту тему просматривают: нет зарегистрированных пользователей и гости: 1