(Rock) Nautilus Pompilius (Наутилус Помпилиус) - Концерт в СКК 14.11.1991, APE (tracks), lossless

 Статистика раздачи 
Размер: 357.41 МБ   |  Зарегистрирован: 04 фев 2009, 13:32   |   .torrent скачан: 0 раз
Сидеров: 0  [ 0 байт/сек ]     Личеров: 0  [ 0 байт/сек ]  
  
Аватара пользователя
Главный редактор
Главный редактор
 
Раздал: 90.01 ТБ
Скачал: 3.78 ТБ
Ратио: 24.248
Сообщения: 285812
Стаж: 9 лет 3 месяца 29 дней
Откуда: Санкт-Петербург

Nautilus Pompilius (Наутилус Помпилиус) - Концерт в СКК 14.11.1991
Жанр: Rock
Аудио кодек: Flac
Тип рипа: tracks
Битрейт аудио: lossless
Продолжительность: 66:45
Трэклист:
01 - Отход на Север
02 - Последний человек на Земле
03 - Тихие игры
04 - Эти реки
05 - Прогулки по воде
06 - На берегу безымянной реки
07 - Иван Человеков
08 - Люди
09 - Джульетта
10 - Песня в защиту женщин
11 - Князь тишины
12 - Падал теплый снег
13 - Доктор твоего тела
14 - Бриллиантовые дороги
15 - Круговая порука
16 - Я хочу быть с тобой
17 - Прощальня песня
18 - Paint in black
Доп. информация: Запись предоставлена сайтом "Компактная дискография" http://naunaunau.narod.ru/
В мр3 раздается здесь https://rutracker.org/forum/viewtopic.php?t=1497073
выложено в лосслесс по просьбе Куртика
Exact Audio Copy V0.99 prebeta 4 from 23. January 2008
Отчёт EAC об извлечении, выполненном 9. февраля 2009, 17:54
Наутилус Помпилиус / Концерт в СКК 14.11.1991
Дисковод: SCSIVAX DVD/CD-ROM Adapter: 3 ID: 0
Режим чтения : Достоверность
Использование точного потока : Да
Отключение кэша аудио : Да
Использование указателей C2 : Нет
Комбинированное смещение чтения/записи : 0
Способность читать области Lead-in и Lead-out : Нет
Заполнение пропущенных сэмплов тишиной : Да
Удаление блоков с тишиной в начале и конце : Нет
При вычислениях CRC использовались нулевые сэмплы : Нет
Интерфейс : Установленный внешний ASPI-интерфейс
Обработка зазоров : Не обнаружено, добавлено к предыдущему треку
Выходной формат : Пользовательский кодировщик
Выбранный битрейт : 768 kBit/s
Качество : Высокий
Добавление ID3-тэга : Нет
Утилита сжатия : C:\Program Files\Exact Audio Copy\FLAC\FLAC.EXE
Дополнительные параметры : -6 -V -T "ARTIST=%a" -T "TITLE=%t" -T "ALBUM=%g" -T "DATE=%y" -T "TRACKNUMBER=%n" -T "GENRE=%m" -T "COMMENT=%e" %s -o %d
TOC извлечённого CD
Трек | Старт | Длительность | Начальный сектор | Конечный сектор
---------------------------------------------------------------------
1 | 0:00.00 | 3:33.07 | 0 | 15981
2 | 3:33.07 | 3:51.73 | 15982 | 33379
3 | 7:25.05 | 3:54.19 | 33380 | 50948
4 | 11:19.24 | 3:19.38 | 50949 | 65911
5 | 14:38.62 | 3:56.13 | 65912 | 83624
6 | 18:35.00 | 4:13.43 | 83625 | 102642
7 | 22:48.43 | 4:34.70 | 102643 | 123262
8 | 27:23.38 | 3:13.57 | 123263 | 137794
9 | 30:37.20 | 4:26.48 | 137795 | 157792
10 | 35:03.68 | 3:17.45 | 157793 | 172612
11 | 38:21.38 | 2:59.43 | 172613 | 186080
12 | 41:21.06 | 2:38.05 | 186081 | 197935
13 | 43:59.11 | 4:02.04 | 197936 | 216089
14 | 48:01.15 | 3:39.55 | 216090 | 232569
15 | 51:40.70 | 3:58.71 | 232570 | 250490
16 | 55:39.66 | 4:25.28 | 250491 | 270393
17 | 60:05.19 | 3:24.44 | 270394 | 285737
18 | 63:29.63 | 3:14.59 | 285738 | 300346
Трек 1
Имя файла D:\Мои документы\Отход на Север.wav
Пиковый уровень 83.3 %
Качество трека 100.0 %
CRC копии D37A8DA7
Копирование... OK
Трек 2
Имя файла D:\Мои документы\Последний человек на Земле.wav
Пиковый уровень 91.3 %
Качество трека 100.0 %
CRC копии 74667CF0
Копирование... OK
Трек 3
Имя файла D:\Мои документы\Тихие игры.wav
Пиковый уровень 86.6 %
Качество трека 100.0 %
CRC копии 39BCC29C
Копирование... OK
Трек 4
Имя файла D:\Мои документы\Эти реки.wav
Пиковый уровень 90.0 %
Качество трека 100.0 %
CRC копии B18E0807
Копирование... OK
Трек 5
Имя файла D:\Мои документы\Прогулки по воде.wav
Пиковый уровень 76.3 %
Качество трека 100.0 %
CRC копии 2D08ACFC
Копирование... OK
Трек 6
Имя файла D:\Мои документы\На берегу безымянной реки.wav
Пиковый уровень 72.3 %
Качество трека 100.0 %
CRC копии C7626ABC
Копирование... OK
Трек 7
Имя файла D:\Мои документы\Иван Человеков.wav
Пиковый уровень 96.3 %
Качество трека 99.9 %
CRC копии 20E602E3
Копирование... OK
Трек 8
Имя файла D:\Мои документы\Люди.wav
Пиковый уровень 81.3 %
Качество трека 100.0 %
CRC копии ABB01ADB
Копирование... OK
Трек 9
Имя файла D:\Мои документы\Джульетта.wav
Пиковый уровень 70.2 %
Качество трека 99.9 %
CRC копии C8680F25
Копирование... OK
Трек 10
Имя файла D:\Мои документы\Песня в защиту женщин.wav
Пиковый уровень 88.8 %
Качество трека 99.9 %
CRC копии F26E982E
Копирование... OK
Трек 11
Имя файла D:\Мои документы\Князь тишины.wav
Пиковый уровень 81.1 %
Качество трека 100.0 %
CRC копии 4FC32C20
Копирование... OK
Трек 12
Имя файла D:\Мои документы\Падал теплый снег.wav
Пиковый уровень 77.7 %
Качество трека 99.9 %
CRC копии 3113091E
Копирование... OK
Трек 13
Имя файла D:\Мои документы\Доктор твоего тела.wav
Пиковый уровень 79.6 %
Качество трека 100.0 %
CRC копии 050DB83B
Копирование... OK
Трек 14
Имя файла D:\Мои документы\Бриллиантовые дороги.wav
Пиковый уровень 66.4 %
Качество трека 100.0 %
CRC копии CA4D7768
Копирование... OK
Трек 15
Имя файла D:\Мои документы\Скованные одной цепью.wav
Пиковый уровень 89.4 %
Качество трека 100.0 %
CRC копии 0B728268
Копирование... OK
Трек 16
Имя файла D:\Мои документы\Я хочу быть с тобой.wav
Пиковый уровень 76.9 %
Качество трека 100.0 %
CRC копии 6E009108
Копирование... OK
Трек 17
Имя файла D:\Мои документы\Последнее письмо.wav
Пиковый уровень 66.4 %
Качество трека 100.0 %
CRC копии E744E67F
Копирование... OK
Трек 18
Имя файла D:\Мои документы\Paint in black.wav
Пиковый уровень 77.0 %
Качество трека 100.0 %
CRC копии 5A54DD41
Копирование... OK
Ошибок не произошло
Конец отчёта
Не забывайте говорить Спасибо. Не уходите с раздачи!   
Торрент: Зарегистрирован [04 фев 2009, 13:32]
Статус:
Проверен
 
.torrent скачан: 0 раз
Хэш: afaa8cfbddbd89a39531e05f639d921b10f297d0
Размер: 357.41 МБ (374 775 170 байт)
   Стать Автором раздачи
   
Цитата

Вернуться в Отечественная рок-музыка (оцифровки)

Кто сейчас на конференции

Сейчас эту тему просматривают: нет зарегистрированных пользователей и гости: 1