(Rock) [16-44] Машина Времени - Я Сюда Еще Вернусь, 1982-1983 (2 CD, 2003), FLAC (image+.cue)

 Статистика раздачи 
Размер: 885.87 МБ   |  Зарегистрирован: 15 июл 2012, 13:44   |   .torrent скачан: 0 раз
Сидеров: 0  [ 0 байт/сек ]     Личеров: 0  [ 0 байт/сек ]  
  
Аватара пользователя
Главный редактор
Главный редактор
 
Раздал: 90.01 ТБ
Скачал: 3.78 ТБ
Ратио: 24.248
Сообщения: 284987
Стаж: 9 лет 3 месяца 22 дня
Откуда: Санкт-Петербург

Машина Времени - Я Сюда Еще Вернусь, 1982-1983 (2 CD, 2003)

Исполнитель: Машина Времени
Жанр: Rock & Roll
Дата выпуска альбома: 1982, 1983
Дата выпуска дисков: 2003
Страна - производитель дисков: Россия (бутлег)
Тип рипа: FLAC (image+cue)
Формат раздачи: 16bit-44KHz
Продолжительность: 2 CD, 02:38:27
Формат: FLAC (image+cue)
Продолжительность: 01:19:54
01. Обращение к друзьям [00:02:16]
02. Первый шаг [00:03:44]
03. Наша жизнь не приемлет ... [00:00:44]
04. Перемена мест [00:04:11]
05. Бег по кругу [00:03:24]
06. Ночью больше усталость [00:01:03]
07. Ночь [00:04:14]
08. Девятый вал [00:04:58]
09. Весь мир сошёл с ума [00:05:24]
10. Лица [00:02:43]
11. Я сюда ещё вернусь [00:06:43]
12. Скворец [00:03:51]
13. Песенка про собственное... [00:02:26]
14. Уходящее лето [00:01:36]
15. Наш остров [00:05:02]
16. Перемена мест [00:04:00]
17. Девятый вал [00:05:08]
18. Весь мир сошёл с ума [00:05:36]
19. Наш остров [00:05:16]
20. Багги [00:04:16]
21. Старый рок-н-ролл [00:03:09]
Exact Audio Copy V0.99 prebeta 5 from 4. May 2009
Отчёт EAC об извлечении, выполненном 15. июля 2012, 12:16
Машина Времени / 1982-1983 Я Сюда Еще Вернусь (2 CD)
Дисковод: PIONEER DVD-RW DVR-219L Adapter: 5 ID: 0
Режим чтения : Достоверность
Использование точного потока : Да
Отключение кэша аудио : Да
Использование указателей C2 : Нет
Коррекция смещения при чтении : 6
Способность читать области Lead-in и Lead-out : Нет
Заполнение пропущенных сэмплов тишиной : Да
Удаление блоков с тишиной в начале и конце : Нет
При вычислениях CRC использовались нулевые сэмплы : Да
Интерфейс : Встроенный Win32-интерфейс для Win NT/2000
Выходной формат : Пользовательский кодировщик
Выбранный битрейт : 1024 kBit/s
Качество : Высокий
Добавление ID3-тэга : Нет
Утилита сжатия : C:\Program Files (x86)\Exact Audio Copy\Flac\flac.exe
Дополнительные параметры : -8 -V -T "ARTIST=%a" -T "TITLE=%t" -T "ALBUM=%g" -T "DATE=%y" -T "TRACKNUMBER=%n" -T "GENRE=%m" -T "COMMENT=EAC FLAC -8" %s
TOC извлечённого CD
Трек | Старт | Длительность | Начальный сектор | Конечный сектор
---------------------------------------------------------------------
1 | 0:00.00 | 2:16.69 | 0 | 10268
2 | 2:16.69 | 3:44.25 | 10269 | 27093
3 | 6:01.19 | 0:44.43 | 27094 | 30436
4 | 6:45.62 | 4:11.08 | 30437 | 49269
5 | 10:56.70 | 3:24.08 | 49270 | 64577
6 | 14:21.03 | 1:03.32 | 64578 | 69334
7 | 15:24.35 | 4:14.63 | 69335 | 88447
8 | 19:39.23 | 4:58.48 | 88448 | 110845
9 | 24:37.71 | 5:24.58 | 110846 | 135203
10 | 30:02.54 | 2:43.46 | 135204 | 147474
11 | 32:46.25 | 6:43.73 | 147475 | 177772
12 | 39:30.23 | 3:51.25 | 177773 | 195122
13 | 43:21.48 | 2:26.44 | 195123 | 206116
14 | 45:48.17 | 1:36.23 | 206117 | 213339
15 | 47:24.40 | 5:02.35 | 213340 | 236024
16 | 52:27.00 | 4:00.48 | 236025 | 254072
17 | 56:27.48 | 5:08.02 | 254073 | 277174
18 | 61:35.50 | 5:36.62 | 277175 | 302436
19 | 67:12.37 | 5:16.29 | 302437 | 326165
20 | 72:28.66 | 4:16.35 | 326166 | 345400
21 | 76:45.26 | 3:09.03 | 345401 | 359578
Характеристики диапазона извлечения и сообщения об ошибках
Выбранный диапазон
Имя файла F:\СВОИ РЕЛИЗЫ\Машина Времени 1982-1983 ''Я Сюда Еще Вернусь'' (2 CD)\Машина Времени 1982-1983 ''Я Сюда Еще Вернусь'' - CD 1\Машина Времени - 1982-1983 Я Сюда Еще Вернусь (2 CD).wav
Пиковый уровень 100.0 %
Качество диапазона 100.0 %
CRC теста 3BACAA8E
CRC копии 3BACAA8E
Копирование... OK
Ошибок не произошло
AccurateRip: сводка
Трек 1 нет в базе данных
Трек 2 нет в базе данных
Трек 3 нет в базе данных
Трек 4 нет в базе данных
Трек 5 нет в базе данных
Трек 6 нет в базе данных
Трек 7 нет в базе данных
Трек 8 нет в базе данных
Трек 9 нет в базе данных
Трек 10 нет в базе данных
Трек 11 нет в базе данных
Трек 12 нет в базе данных
Трек 13 нет в базе данных
Трек 14 нет в базе данных
Трек 15 нет в базе данных
Трек 16 нет в базе данных
Трек 17 нет в базе данных
Трек 18 нет в базе данных
Трек 19 нет в базе данных
Трек 20 нет в базе данных
Трек 21 нет в базе данных
Ни одного трека нет в базе AccurateRip
Конец отчёта
Формат: FLAC (image+cue)
Продолжительность: 01:18:32
01. Вступительное слово [00:00:53]
02. Обращение к друзьям [00:02:18]
03. Первый шаг [00:03:43]
04. Наша жизнь не приемлет ... [00:00:42]
05. Перемена мест [00:04:17]
06. Барьер [00:05:43]
07. Ночью больше усталость [00:01:15]
08. Ночь [00:04:24]
09. Девятый вал [00:05:05]
10. Весь мир сошёл с ума [00:05:06]
11. Лица [00:02:40]
12. Бег [00:03:26]
13. Сколько дел и друзей я ... [00:00:52]
14. Старые друзья [00:04:35]
15. Памяти Высоцкого [00:02:24]
16. Я сюда ещё вернусь [00:06:43]
17. Объявление состава [00:00:44]
18. При всём моём к закону ... [00:00:27]
19. Разговор в поезде [00:02:27]
20. Песенка про собственное... [00:02:31]
21. Старый рок-н-ролл [00:03:47]
22. Попурри [00:09:38]
23. Пока горит свеча [00:03:59]
24. Заключительное слово [00:00:42]
Exact Audio Copy V0.99 prebeta 5 from 4. May 2009
Отчёт EAC об извлечении, выполненном 15. июля 2012, 12:50
Машина Времени / 1982-1983 Я Сюда Еще Вернусь (2 CD)
Дисковод: PIONEER DVD-RW DVR-219L Adapter: 5 ID: 0
Режим чтения : Достоверность
Использование точного потока : Да
Отключение кэша аудио : Да
Использование указателей C2 : Нет
Коррекция смещения при чтении : 6
Способность читать области Lead-in и Lead-out : Нет
Заполнение пропущенных сэмплов тишиной : Да
Удаление блоков с тишиной в начале и конце : Нет
При вычислениях CRC использовались нулевые сэмплы : Да
Интерфейс : Встроенный Win32-интерфейс для Win NT/2000
Выходной формат : Пользовательский кодировщик
Выбранный битрейт : 1024 kBit/s
Качество : Высокий
Добавление ID3-тэга : Нет
Утилита сжатия : C:\Program Files (x86)\Exact Audio Copy\Flac\flac.exe
Дополнительные параметры : -8 -V -T "ARTIST=%a" -T "TITLE=%t" -T "ALBUM=%g" -T "DATE=%y" -T "TRACKNUMBER=%n" -T "GENRE=%m" -T "COMMENT=EAC FLAC -8" %s
TOC извлечённого CD
Трек | Старт | Длительность | Начальный сектор | Конечный сектор
---------------------------------------------------------------------
1 | 0:00.00 | 0:53.50 | 0 | 4024
2 | 0:53.50 | 2:18.35 | 4025 | 14409
3 | 3:12.10 | 3:43.35 | 14410 | 31169
4 | 6:55.45 | 0:42.30 | 31170 | 34349
5 | 7:38.00 | 4:17.45 | 34350 | 53669
6 | 11:55.45 | 5:43.45 | 53670 | 79439
7 | 17:39.15 | 1:15.40 | 79440 | 85104
8 | 18:54.55 | 4:24.05 | 85105 | 104909
9 | 23:18.60 | 5:05.45 | 104910 | 127829
10 | 28:24.30 | 5:06.70 | 127830 | 150849
11 | 33:31.25 | 2:40.10 | 150850 | 162859
12 | 36:11.35 | 3:26.60 | 162860 | 178369
13 | 39:38.20 | 0:52.10 | 178370 | 182279
14 | 40:30.30 | 4:35.40 | 182280 | 202944
15 | 45:05.70 | 2:24.15 | 202945 | 213759
16 | 47:30.10 | 6:43.60 | 213760 | 244044
17 | 54:13.70 | 0:44.20 | 244045 | 247364
18 | 54:58.15 | 0:27.45 | 247365 | 249434
19 | 55:25.60 | 2:27.65 | 249435 | 260524
20 | 57:53.50 | 2:31.05 | 260525 | 271854
21 | 60:24.55 | 3:47.00 | 271855 | 288879
22 | 64:11.55 | 9:38.40 | 288880 | 332269
23 | 73:50.20 | 3:59.50 | 332270 | 350244
24 | 77:49.70 | 0:42.68 | 350245 | 353462
Характеристики диапазона извлечения и сообщения об ошибках
Выбранный диапазон
Имя файла F:\СВОИ РЕЛИЗЫ\Машина Времени 1982-1983 ''Я Сюда Еще Вернусь'' (2 CD)\Машина Времени 1982-1983 ''Я Сюда Еще Вернусь'' - CD 2\Машина Времени - 1982-1983 Я Сюда Еще Вернусь (2 CD).wav
Пиковый уровень 98.6 %
Качество диапазона 100.0 %
CRC теста AB71B2FB
CRC копии AB71B2FB
Копирование... OK
Ошибок не произошло
AccurateRip: сводка
Трек 1 нет в базе данных
Трек 2 нет в базе данных
Трек 3 нет в базе данных
Трек 4 нет в базе данных
Трек 5 нет в базе данных
Трек 6 нет в базе данных
Трек 7 нет в базе данных
Трек 8 нет в базе данных
Трек 9 нет в базе данных
Трек 10 нет в базе данных
Трек 11 нет в базе данных
Трек 12 нет в базе данных
Трек 13 нет в базе данных
Трек 14 нет в базе данных
Трек 15 нет в базе данных
Трек 16 нет в базе данных
Трек 17 нет в базе данных
Трек 18 нет в базе данных
Трек 19 нет в базе данных
Трек 20 нет в базе данных
Трек 21 нет в базе данных
Трек 22 нет в базе данных
Трек 23 нет в базе данных
Трек 24 нет в базе данных
Ни одного трека нет в базе AccurateRip
Конец отчёта
Не забывайте говорить Спасибо. Не уходите с раздачи!   
Торрент: Зарегистрирован [15 июл 2012, 13:44]
Статус:
Проверен
 
.torrent скачан: 0 раз
Хэш: c1d08d6fc677bcf5b7ea6f9f3db9e716bf5828b9
Размер: 885.87 МБ (928 903 227 байт)
   Стать Автором раздачи
   
Цитата
  • Похожие торренты
    Ответы
    Просмотры
    Последнее сообщение

Вернуться в Отечественная рок-музыка (оцифровки)

Кто сейчас на конференции

Сейчас эту тему просматривают: нет зарегистрированных пользователей и гости: 1