(Heavy Metal) Кипелов - Жить вопреки (VinylRip) - 2011, APE (image+.cue), lossless

 Статистика раздачи 
Размер: 351.2 МБ   |  Зарегистрирован: 06 ноя 2011, 14:08   |   .torrent скачан: 0 раз
Сидеров: 0  [ 0 байт/сек ]     Личеров: 0  [ 0 байт/сек ]  
  
Аватара пользователя
Главный редактор
Главный редактор
Я на сайте
 
Раздал: 90.01 ТБ
Скачал: 3.78 ТБ
Ратио: 24.248
Сообщения: 285171
Стаж: 9 лет 3 месяца 26 дней
Откуда: Санкт-Петербург

Кипелов - Жить вопреки (VinylRip)

Жанр: Heavy Metal
Страна-производитель диска: Чехия
Год издания диска: 2011
Издатель (лейбл): Мистерия Рекордс
Страна: Россия
Аудиокодек: APE (*.ape)
Тип рипа: image+.cue
Битрейт аудио: lossless
Продолжительность: 00:54:25
Источник (релизер): https://rutracker.org/forum/viewtopic.php?t=3733708
Наличие сканов в содержимом раздачи: да
Треклист:
01 Интро
02 Жить вопреки
03 Власть огня
04 Гламурная птица
05 На грани
06 Безумие
07 Черная звезда
08 Еще повоюем
09 Дыхание последней любви
10 На крутом берегу
Код: Выделить всё
Exact Audio Copy V0.99 prebeta 5 from 4. May 2009
Отчёт EAC об извлечении, выполненном 6. ноября 2011, 18:19
Кипелов / Жить вопреки
Дисковод: ASUS    DRW-2014L1T   Adapter: 1  ID: 0
Режим чтения                 : Достоверность
Использование точного потока : Да
Отключение кэша аудио        : Да
Использование указателей C2  : Нет
Коррекция смещения при чтении                     : 6
Способность читать области Lead-in и Lead-out     : Нет
Заполнение пропущенных сэмплов тишиной            : Да
Удаление блоков с тишиной в начале и конце        : Нет
При вычислениях CRC использовались нулевые сэмплы : Да
Интерфейс                                         : Установленный внешний ASPI-интерфейс
Выходной формат : Внутренние WAV-операции
Формат сэмплов  : 44.100 Гц; 16 бит; стерео
TOC извлечённого CD
     Трек |   Старт  | Длительность | Начальный сектор | Конечный сектор
    ---------------------------------------------------------------------
       1  |  0:00.00 |    1:37.48   |           0      |       7322
       2  |  1:37.48 |    4:34.39   |        7323      |      27911
       3  |  6:12.12 |    4:45.22   |       27912      |      49308
       4  | 10:57.34 |    6:00.47   |       49309      |      76355
       5  | 16:58.06 |    5:04.56   |       76356      |      99211
       6  | 22:02.62 |    6:55.08   |       99212      |     130344
       7  | 28:57.70 |    6:35.70   |      130345      |     160039
       8  | 35:33.65 |    6:39.70   |      160040      |     190034
       9  | 42:13.60 |    5:49.42   |      190035      |     216251
      10  | 48:03.27 |    6:22.36   |      216252      |     244937
Характеристики диапазона извлечения и сообщения об ошибках
Выбранный диапазон
     Имя файла C:\Documents and Settings\Александр\Мои документы\Моя музыка\Exact Audio Copy\Кипелов - Жить вопреки (2011) (VynilRip).wav
     Пиковый уровень 100.0 %
     Качество диапазона 99.9 %
     CRC теста 5F365F3B
     CRC копии 5F365F3B
     Копирование... OK
Ошибок не произошло
Конец отчёта

Код: Выделить всё
REM GENRE "Heavy Metal"
REM DATE 2011
REM DISCID 880CC10A
REM COMMENT "ExactAudioCopy v0.99pb5"
PERFORMER "Кипелов"
TITLE "Жить Вопреки"
FILE "Кипелов - Жить вопреки (VynilRip).ape" WAVE
  TRACK 01 AUDIO
    TITLE "Интро"
    PERFORMER "Кипелов"
    ISRC 000000000000
    INDEX 01 00:00:00
  TRACK 02 AUDIO
    TITLE "Жить вопреки"
    PERFORMER "Кипелов"
    ISRC 000000000000
    INDEX 01 01:37:48
  TRACK 03 AUDIO
    TITLE "Власть огня"
    PERFORMER "Кипелов"
    ISRC 000000000000
    INDEX 01 06:12:12
  TRACK 04 AUDIO
    TITLE "Гламурная птица"
    PERFORMER "Кипелов"
    ISRC 000000000000
    INDEX 01 10:57:34
  TRACK 05 AUDIO
    TITLE "На грани"
    PERFORMER "Кипелов"
    ISRC 000000000000
    INDEX 01 16:58:06
  TRACK 06 AUDIO
    TITLE "Безумие"
    PERFORMER "Кипелов"
    ISRC 000000000000
    INDEX 01 22:02:62
  TRACK 07 AUDIO
    TITLE "Черная звезда"
    PERFORMER "Кипелов"
    ISRC 000000000000
    INDEX 01 28:57:70
  TRACK 08 AUDIO
    TITLE "Еще повоюем"
    PERFORMER "Кипелов"
    ISRC 000000000000
    INDEX 01 35:33:65
  TRACK 09 AUDIO
    TITLE "Дыхание последней любви"
    PERFORMER "Кипелов"
    ISRC 000000000000
    INDEX 01 42:13:60
  TRACK 10 AUDIO
    TITLE "На крутом берегу "
    PERFORMER "Кипелов"
    ISRC 000000000000
    INDEX 01 48:03:27

"Мы и на виниле решили выпустить альбом не потому, что зажрались и нам больше нечего делать, а потому, что есть категория людей, которая хочет вернуться к этому звучанию. Мы и сводили альбом специально под винил. То есть было два разных сведения и мастеринга. Я послушал и, по-моему, на виниле звучит благороднее..."
Валерий Кипелов
"Кипелов" - лучшая группа в России, играющая в стиле Hard`n`Heavy, обладатель премии RAMP в номинации "Отцы рока", MTV Россия "Russian Music Awards", а также специального приза "Рекордъ-2007" "За лучший живой концерт 2007 года", выпускает долгожданный альбом "Жить вопреки". Подарком для поклонников группы станет выход альбома не только на CD, но и на виниле – впервые в истории группы!
По мнению самих музыкантов, "Жить вопреки" - это противостояние современному жестокому миру, лицемерию, царящему вокруг, и ценностям, которые навязывают современному человеку под видом "настоящей" жизни. Тема проходит нитью по всему альбому, раскрываясь различными картинами во всевозможных ракурсах. Это и судьба "Гламурной птицы", и "Власть огня", пожирающего всё на своём пути, и притча "На крутом берегу", являющаяся продолжением заглавной песни.
Сведение и мастеринг - Michael Voss. Оформление обложки Felipe Machado Franco. В записи альбома приняли участие симфонический оркестр "Глобалис" и камерный оркестр "Чистая Музыка".

Валерий Кипелов — вокал
Андрей Голованов — гитара
Вячеслав Молчанов — гитара
Алексей Харьков — бас-гитара
Александр Манякин — ударные

Не забывайте говорить Спасибо. Не уходите с раздачи!   
Торрент: Зарегистрирован [06 ноя 2011, 14:08]
Статус:
Проверен
 
.torrent скачан: 0 раз
Хэш: 5c2c4349932ab6d1022871adae57d86e3a5d6565
Размер: 351.2 МБ (368 259 966 байт)
   Стать Автором раздачи
   
Цитата
  • Похожие торренты
    Ответы
    Просмотры
    Последнее сообщение

Вернуться в Отечественная рок-музыка (оцифровки)

Кто сейчас на конференции

Сейчас эту тему просматривают: нет зарегистрированных пользователей и гости: 1