(Rock) [MC][16/44.1] Александр Лаэртский - Дети хоронят коня (Авторская версия) - 1990, FLAC (image+.cue), lossless

 Статистика раздачи 
Размер: 301.35 МБ   |  Зарегистрирован: 11 авг 2013, 07:00   |   .torrent скачан: 0 раз
Сидеров: 0  [ 0 байт/сек ]     Личеров: 0  [ 0 байт/сек ]  
  
Аватара пользователя
Главный редактор
Главный редактор
 
Раздал: 90.01 ТБ
Скачал: 3.78 ТБ
Ратио: 24.248
Сообщения: 286171
Стаж: 9 лет 4 месяца 3 дня
Откуда: Санкт-Петербург

Александр Лаэртский / Дети хоронят коня (Авторская версия)
Жанр: Rock
Страна-производитель диска: СССР
Год издания: 1990
Издатель (лейбл): Элиас
Страна: СССР
Аудиокодек: FLAC (*.flac)
Тип рипа: image+.cue
Формат записи: 16/44.1
Формат раздачи: 16/44.1
Устройство воспроизведения: Technics RS-AZ7
Предварительный усилитель: Встроенный
АЦП: Звуковая плата TBS Fiji
Программа-оцифровщик: Cool Edit Pro 2.1
Обработка: Нет
Битрейт аудио: lossless
Продолжительность: 0:36:35
Источник (релизер): Ansent
Наличие сканов в содержимом раздачи: да
Треклист:
01-Дети хоронят коня
02-Раз на пляже
03-Прибор для приварки катодов
04-Утро (А. Шварценеггер)
05-Повешенные
06-Трупик майора
07-Не хотелось драться
08-Фантик
09-Твой вызов из ЛондОна
10-Зинкин труп
11-Я помню себя
Код: Выделить всё
FILE "Александр Лаэртский - 1990-Дети хоронят коня.flac" WAVE
  TRACK 01 AUDIO
    TITLE "Дети хоронят коня"
    INDEX 01 00:00:00
  TRACK 02 AUDIO
    TITLE "Раз на пляже"
    INDEX 01 04:17:22
  TRACK 03 AUDIO
    TITLE "Прибор для приварки катодов"
    INDEX 01 07:36:64
  TRACK 04 AUDIO
    TITLE "Утро (А. Шварценеггер)"
    INDEX 01 10:30:44
  TRACK 05 AUDIO
    TITLE "Повешенные"
    INDEX 01 14:42:62
  TRACK 06 AUDIO
    TITLE "Трупик майора"
    INDEX 01 17:57:36
  TRACK 07 AUDIO
    TITLE "Не хотелось драться"
    INDEX 01 20:40:25
  TRACK 08 AUDIO
    TITLE "Фантик"
    INDEX 01 23:03:50
  TRACK 09 AUDIO
    TITLE "Твой вызов из ЛондОна"
    INDEX 01 26:17:54
  TRACK 10 AUDIO
    TITLE "Зинкин труп"
    INDEX 01 30:40:33
  TRACK 11 AUDIO
    TITLE "Я помню себя"
    INDEX 01 33:17:48
Доп. информация: Кассетная запись отличается от CD версии.
Не забывайте говорить Спасибо. Не уходите с раздачи!   
Торрент: Зарегистрирован [11 авг 2013, 07:00]
Статус:
Проверен
 
.torrent скачан: 0 раз
Хэш: f7e2a79279a787ac673487cf3aef7b1bb9480da1
Размер: 301.35 МБ (315 991 550 байт)
   Стать Автором раздачи
   
Цитата
  • Похожие торренты
    Ответы
    Просмотры
    Последнее сообщение

Вернуться в Отечественная рок-музыка (оцифровки)

Кто сейчас на конференции

Сейчас эту тему просматривают: нет зарегистрированных пользователей и гости: 1