(Trash metal) Propeller - Always Say Die - 1992, WAVPack (image+.cue), lossless

 Статистика раздачи 
Размер: 290.27 МБ   |  Зарегистрирован: 13 фев 2010, 19:25   |   .torrent скачан: 0 раз
Сидеров: 0  [ 0 байт/сек ]     Личеров: 0  [ 0 байт/сек ]  
  
Аватара пользователя
Главный редактор
Главный редактор
 
Раздал: 90.01 ТБ
Скачал: 3.78 ТБ
Ратио: 24.248
Сообщения: 285615
Стаж: 9 лет 3 месяца 28 дней
Откуда: Санкт-Петербург

Propeller - Always Say Die (demo) магнитоальбом
Жанр: Trash metal
Год выпуска диска: 1992
Производитель диска: Россия
Аудио кодек: WAVPack
Тип рипа: image+.cue
Битрейт аудио: lossless
Продолжительность: 43:43
Трэклист:
1. Touch of freedom
2. Red pestilence
3. I am beerdrinker
4. Dazed fear
5. Brain
6. Night of a living death
7. Evil spirit
8. Stick in back
9. Brainsuckers-spiders
Exact Audio Copy V0.99 prebeta 5 from 4. May 2009
Отчёт EAC об извлечении, выполненном 13. февраля 2010, 20:47
Propeller / Always Say Die
Дисковод: Optiarc DVD RW AD-5200S Adapter: 0 ID: 0
Режим чтения : Скоростной
Коррекция смещения при чтении : 0
Способность читать области Lead-in и Lead-out : Нет
Заполнение пропущенных сэмплов тишиной : Да
Удаление блоков с тишиной в начале и конце : Нет
При вычислениях CRC использовались нулевые сэмплы : Нет
Интерфейс : Установленный внешний ASPI-интерфейс
Выходной формат : Внутренние WAV-операции
Формат сэмплов : 44.100 Гц; 16 бит; стерео
TOC извлечённого CD
Трек | Старт | Длительность | Начальный сектор | Конечный сектор
---------------------------------------------------------------------
1 | 0:00.00 | 6:09.57 | 0 | 27731
2 | 6:09.57 | 5:36.63 | 27732 | 52994
3 | 11:46.45 | 3:59.60 | 52995 | 70979
4 | 15:46.30 | 4:31.48 | 70980 | 91352
5 | 20:18.03 | 3:59.52 | 91353 | 109329
6 | 24:17.55 | 4:57.47 | 109330 | 131651
7 | 29:15.27 | 3:16.23 | 131652 | 146374
8 | 32:31.50 | 5:24.46 | 146375 | 170720
9 | 37:56.21 | 5:47.08 | 170721 | 196753
Характеристики диапазона извлечения и сообщения об ошибках
Выбранный диапазон
Имя файла F:\01\Propeller - Always Say Die.wav
Пиковый уровень 76.5 %
CRC теста A5E65027
CRC копии A5E65027
Копирование... OK
Ошибок не произошло
Конец отчёта
#7#7
Доп. информация: Propeller - группа из Липецка, участники которой впоследствии раскрылись в команде Phantasm - лидере российской death-metal сцены. Phantasm записали один диск и поучаствовали в различных компиляциях, распались достаточно быстро, но оставили жирный след в отечественной death-metal музыке. Три песни Propeller вошли в дебютный альбом Phantasm.
Не забывайте говорить Спасибо. Не уходите с раздачи!   
Торрент: Зарегистрирован [13 фев 2010, 19:25]
Статус:
Проверен
 
.torrent скачан: 0 раз
Хэш: d536dcc12b557c72a0b17122ba81e38ef308f37d
Размер: 290.27 МБ (304 374 760 байт)
   Стать Автором раздачи
   
Цитата
  • Похожие торренты
    Ответы
    Просмотры
    Последнее сообщение

Вернуться в Отечественная рок-музыка (оцифровки)

Кто сейчас на конференции

Сейчас эту тему просматривают: нет зарегистрированных пользователей и гости: 1