(Thrash metal) [MB][16/44.1] Коррозия металла - 1987-1990 (магнитальбомы) - 2009, FLAC (image+.cue), lossless

 Статистика раздачи 
Размер: 1.18 ГБ   |  Зарегистрирован: 28 фев 2009, 16:19   |   .torrent скачан: 0 раз
Сидеров: 0  [ 0 байт/сек ]     Личеров: 0  [ 0 байт/сек ]  
  
Аватара пользователя
Главный редактор
Главный редактор
 
Раздал: 90.01 ТБ
Скачал: 3.78 ТБ
Ратио: 24.248
Сообщения: 285615
Стаж: 9 лет 3 месяца 28 дней
Откуда: Санкт-Петербург

Коррозия металла-1987-1990
Жанр: thrash metal
Год выпуска диска: 2009
Производитель диска: СССР
Аудио кодек: FLAC
Тип рипа: image+.cue
Битрейт аудио: lossless
Продолжительность: 02:52
Трэклист:
Зов теней/Жизнь в октябре 1987(концертные записи)
1.Зов теней
2.Власть зла
3.Люцифер
4.Черный корабль
5.Дьявол здесь
6.Аббадон
7.Спид
8.Зов теней
9.Низвержение в Мальстрим
10.Соло в стиле Нойз
11.Фантом
12.Под этим могильным памятником.........(телега паука)
13.Люцифер
трек 1-5 вокал Ремишевский
трек 6-13 вокал Боров
Exact Audio Copy V0.99 prebeta 4 from 23. January 2008
Отчёт EAC об извлечении, выполненном 19. мая 2009, 0:21
Коррозия Металла / Зов Теней
Дисковод: HL-DT-STBD-RE GGW-H20L Adapter: 3 ID: 0
Режим чтения : Достоверность
Использование точного потока : Да
Отключение кэша аудио : Да
Использование указателей C2 : Нет
Коррекция смещения при чтении : 667
Способность читать области Lead-in и Lead-out : Нет
Заполнение пропущенных сэмплов тишиной : Да
Удаление блоков с тишиной в начале и конце : Нет
При вычислениях CRC использовались нулевые сэмплы : Да
Интерфейс : Встроенный Win32-интерфейс для Win NT/2000
Выходной формат : Пользовательский кодировщик
Выбранный битрейт : 768 kBit/s
Качество : Высокий
Добавление ID3-тэга : Нет
Утилита сжатия : C:\Program Files\Exact Audio Copy\FLAC\FLAC.EXE
Дополнительные параметры : -6 -V -T "ARTIST=%a" -T "TITLE=%t" -T "ALBUM=%g" -T "DATE=%y" -T "TRACKNUMBER=%n" -T "GENRE=%m" -T "COMMENT=%e" %s -o %d
TOC извлечённого CD
Трек | Старт | Длительность | Начальный сектор | Конечный сектор
---------------------------------------------------------------------
1 | 0:00.00 | 4:38.13 | 0 | 20862
2 | 4:38.13 | 4:31.50 | 20863 | 41237
3 | 9:09.63 | 5:09.53 | 41238 | 64465
4 | 14:19.41 | 4:36.45 | 64466 | 85210
5 | 18:56.11 | 7:58.44 | 85211 | 121104
6 | 26:54.55 | 6:46.52 | 121105 | 151606
7 | 33:41.32 | 5:18.21 | 151607 | 175477
8 | 38:59.53 | 3:17.21 | 175478 | 190273
9 | 42:16.74 | 4:47.67 | 190274 | 211865
10 | 47:04.66 | 3:32.48 | 211866 | 227813
11 | 50:37.39 | 5:49.61 | 227814 | 254049
12 | 56:27.25 | 0:48.61 | 254050 | 257710
13 | 57:16.11 | 5:45.65 | 257711 | 283650
Характеристики диапазона извлечения и сообщения об ошибках
Выбранный диапазон
Имя файла D:\Коррозия Металла - Зов Теней.wav
Пиковый уровень 100.0 %
Качество диапазона 99.9 %
CRC копии 5EB8203F
Копирование... OK
Ошибок не произошло
Конец отчёта


Орден сатаны 1988
1.Спид
2.Моторокер
3.В шторме викинг и меч
4.Героин
5.Черный террор
6.Фантом
7.Аббадон
8.Люцифер
Exact Audio Copy V0.99 prebeta 4 from 23. January 2008
Отчёт EAC об извлечении, выполненном 19. мая 2009, 21:01
Коррозия Металла / Орден Сатаны(демо)
Дисковод: HL-DT-STBD-RE GGW-H20L Adapter: 3 ID: 0
Режим чтения : Достоверность
Использование точного потока : Да
Отключение кэша аудио : Да
Использование указателей C2 : Нет
Коррекция смещения при чтении : 667
Способность читать области Lead-in и Lead-out : Нет
Заполнение пропущенных сэмплов тишиной : Да
Удаление блоков с тишиной в начале и конце : Нет
При вычислениях CRC использовались нулевые сэмплы : Да
Интерфейс : Встроенный Win32-интерфейс для Win NT/2000
Выходной формат : Пользовательский кодировщик
Выбранный битрейт : 768 kBit/s
Качество : Высокий
Добавление ID3-тэга : Нет
Утилита сжатия : C:\Program Files\Exact Audio Copy\FLAC\FLAC.EXE
Дополнительные параметры : -6 -V -T "ARTIST=%a" -T "TITLE=%t" -T "ALBUM=%g" -T "DATE=%y" -T "TRACKNUMBER=%n" -T "GENRE=%m" -T "COMMENT=%e" %s -o %d
TOC извлечённого CD
Трек | Старт | Длительность | Начальный сектор | Конечный сектор
---------------------------------------------------------------------
1 | 0:00.00 | 4:27.28 | 0 | 20052
2 | 4:27.28 | 3:47.49 | 20053 | 37126
3 | 8:15.02 | 4:33.34 | 37127 | 57635
4 | 12:48.36 | 5:40.22 | 57636 | 83157
5 | 18:28.58 | 6:05.34 | 83158 | 110566
6 | 24:34.17 | 6:34.61 | 110567 | 140177
7 | 31:09.03 | 5:44.10 | 140178 | 165987
8 | 36:53.13 | 5:00.25 | 165988 | 188512
Характеристики диапазона извлечения и сообщения об ошибках
Выбранный диапазон
Имя файла D:\Коррозия Металла - Орден Сатаны(демо).wav
Пиковый уровень 57.8 %
Качество диапазона 99.9 %
CRC копии 630CA150
Копирование... OK
Ошибок не произошло
Конец отчёта


Russian Vodka вокруг мира1989
1.Спид
2.Героин
3.Crazy House
4.Съешь Живьем
5.Веселый роджер
6.ККК
7.Танк вампира
8.Russian Vodka
9.Люцифер
Exact Audio Copy V0.99 prebeta 4 from 23. January 2008
Отчёт EAC об извлечении, выполненном 18. мая 2009, 22:52
Коррозия Металла / Русская водка вокруг мира
Дисковод: HL-DT-STBD-RE GGW-H20L Adapter: 3 ID: 0
Режим чтения : Достоверность
Использование точного потока : Да
Отключение кэша аудио : Да
Использование указателей C2 : Нет
Коррекция смещения при чтении : 667
Способность читать области Lead-in и Lead-out : Нет
Заполнение пропущенных сэмплов тишиной : Да
Удаление блоков с тишиной в начале и конце : Нет
При вычислениях CRC использовались нулевые сэмплы : Да
Интерфейс : Встроенный Win32-интерфейс для Win NT/2000
Выходной формат : Пользовательский кодировщик
Выбранный битрейт : 768 kBit/s
Качество : Высокий
Добавление ID3-тэга : Нет
Утилита сжатия : C:\Program File\Exact Audio Copy\FLAC\FLAC.EXE
Дополнительные параметры : -6 -V -T "ARTIST=%a" -T "TITLE=%t" -T "ALBUM=%g" -T "DATE=%y" -T "TRACKNUMBER=%n" -T "GENRE=%m" -T "COMMENT=%e" %s -o %d
TOC извлечённого CD
Трек | Старт | Длительность | Начальный сектор | Конечный сектор
---------------------------------------------------------------------
1 | 0:00.00 | 5:00.00 | 0 | 22499
2 | 5:00.00 | 4:47.00 | 22500 | 44024
3 | 9:47.00 | 4:17.00 | 44025 | 63299
4 | 14:04.00 | 3:20.00 | 63300 | 78299
5 | 17:24.00 | 3:08.00 | 78300 | 92399
6 | 20:32.00 | 4:01.00 | 92400 | 110474
7 | 24:33.00 | 3:07.00 | 110475 | 124499
8 | 27:40.00 | 3:35.00 | 124500 | 140624
9 | 31:15.00 | 5:15.57 | 140625 | 164306
Характеристики диапазона извлечения и сообщения об ошибках
Выбранный диапазон
Имя файла D:\Коррозия Металла - Русская водка вокруг мира.wav
Пиковый уровень 89.1 %
Качество диапазона 99.9 %
CRC копии 1E55798E
Копирование... OK
Ошибок не произошло
Конец отчёта


President 1990
1.Let's go shake,shake...
2.I'm President
3.Black blood seeker
4.Cannibal
5.God Father
6.Fuckin'g militia
7.Weels of fire
8.Bad girls train
9.Russian vodka
10.Дьявол здесь/Боже царя храни
11.KKK(bonus)
12.Black blood seeker(bonus)
13.Russian vodka(bonus)
Exact Audio Copy V0.99 prebeta 4 from 23. January 2008
Отчёт EAC об извлечении, выполненном 18. мая 2009, 21:46
Коррозия Металла / President
Дисковод: HL-DT-STBD-RE GGW-H20L Adapter: 3 ID: 0
Режим чтения : Достоверность
Использование точного потока : Да
Отключение кэша аудио : Да
Использование указателей C2 : Нет
Коррекция смещения при чтении : 667
Способность читать области Lead-in и Lead-out : Нет
Заполнение пропущенных сэмплов тишиной : Да
Удаление блоков с тишиной в начале и конце : Нет
При вычислениях CRC использовались нулевые сэмплы : Да
Интерфейс : Встроенный Win32-интерфейс для Win NT/2000
Выходной формат : Пользовательский кодировщик
Выбранный битрейт : 768 kBit/s
Качество : Высокий
Добавление ID3-тэга : Нет
Утилита сжатия : C:\Program Files\Exact Audio Copy\FLAC\FLAC.EXE
Дополнительные параметры : -6 -V -T "ARTIST=%a" -T "TITLE=%t" -T "ALBUM=%g" -T "DATE=%y" -T "TRACKNUMBER=%n" -T "GENRE=%m" -T "COMMENT=%e" %s -o %d
TOC извлечённого CD
Трек | Старт | Длительность | Начальный сектор | Конечный сектор
---------------------------------------------------------------------
1 | 0:00.00 | 4:07.35 | 0 | 18559
2 | 4:07.35 | 2:57.19 | 18560 | 31853
3 | 7:04.54 | 3:03.64 | 31854 | 45642
4 | 10:08.43 | 3:25.31 | 45643 | 61048
5 | 13:33.74 | 3:30.59 | 61049 | 76857
6 | 17:04.58 | 4:42.64 | 76858 | 98071
7 | 21:47.47 | 3:05.25 | 98072 | 111971
8 | 24:52.72 | 4:00.67 | 111972 | 130038
9 | 28:53.64 | 3:25.31 | 130039 | 145444
10 | 32:19.20 | 5:36.33 | 145445 | 170677
11 | 37:55.53 | 2:49.70 | 170678 | 183422
12 | 40:45.48 | 3:20.70 | 183423 | 198492
13 | 44:06.43 | 3:16.11 | 198493 | 213203
Характеристики диапазона извлечения и сообщения об ошибках.
Выбранный диапазон
Имя файла D:Коррозия металла\1990\Коррозия Металла - President.wav
Пиковый уровень 81.9 %
Качество диапазона 99.9 %
CRC копии 42C0D787
Копирование... OK
Ошибок не произошло
Конец отчёта


Доп. информация: 19.05.2009 torrent был изменен,добавлено два альбома,старые перезалиты в лучшем качестве
Все рипы делались с CD-R болванок.
Разыскиваются альбомы:
1985-Власть зла
1989-1990(???)-Репитиция
1991-Кровавая Мэри
Не забывайте говорить Спасибо. Не уходите с раздачи!   
Торрент: Зарегистрирован [28 фев 2009, 16:19]
Статус:
Проверен
 
.torrent скачан: 0 раз
Хэш: b13b92e3c9c23465ccac4ec6026b73b145c45472
Размер: 1.18 ГБ (1 264 017 803 байт)
   Стать Автором раздачи
   
Цитата

Вернуться в Отечественная рок-музыка (оцифровки)

Кто сейчас на конференции

Сейчас эту тему просматривают: нет зарегистрированных пользователей и гости: 1