(Rock) [LP] [24/192] Пикник - Родом ниоткуда, Харакири - 1988-1991, WavPack (image+.cue)

 Статистика раздачи 
Размер: 2.93 ГБ   |  Зарегистрирован: 25 фев 2013, 13:35   |   .torrent скачан: 0 раз
Сидеров: 0  [ 0 байт/сек ]     Личеров: 0  [ 0 байт/сек ]  
  
Аватара пользователя
Главный редактор
Главный редактор
 
Раздал: 90.01 ТБ
Скачал: 3.78 ТБ
Ратио: 24.248
Сообщения: 286171
Стаж: 9 лет 4 месяца 3 дня
Откуда: Санкт-Петербург

Пикник - Родом ниоткуда, Харакири

Жанр: Rock
Год выпуска: 1988-1991
Лейбл: Мелодия / Matuzalem Records
Страна-производитель: USSR / Russia
Аудио кодек: WavPack
Тип рипа: image+.cue
Формат записи: 24/192
Формат раздачи: 24/192
Продолжительность: 01:09:54
Источник оцифровки: Oleg39
Код класса состояния винила: NM
Устройство воспроизведения: Thorens TD124 mkII + SME 3012 Series II
Головка звукоснимателя: Clearaudio Stradivari
Предварительный усилитель: Van den Hul The Grail (Accumulator driven version)
АЦП: E-MU 0404 USB (ASIO)
Программа-оцифровщик: WaveLab 6
Обработка: Сжатие в wv - Monkey's Audio 4.01, Теги - CUEBeautifier 0.4.31.2
#77Лейбл: Мелодия
Страна-производитель: USSR
Год издания: 1990
Продолжительность: 00:37:15
Треклист:
A1. Я невидим (6:08)
A2. Интересно (5:44)
A3. Нет берегов (5:08)
A4. Романс (2:17)
B1. Это он (4:39)
B2. Стоя на этой лестнице (5:08)
B3. Дай себя сорвать (5:11)
B4. Все остальное - дым (3:00)
REM GENRE "Rock"
REM DATE 1988
REM DISCID C60 28893 008
REM COMMENT "ВТПО Фирма Мелодия, АОЛЗГ 1990, Needledrop By Oleg39"
PERFORMER "Пикник"
TITLE "Родом ниоткуда"
FILE "Piknik - 1988 - Rodom niotkuda [NLV 24-192].wv" WAVE
TRACK 01 AUDIO
TITLE "Я невидим"
PERFORMER "Пикник"
INDEX 01 00:00:00
TRACK 02 AUDIO
TITLE "Интересно"
PERFORMER "Пикник"
INDEX 01 06:08:15
TRACK 03 AUDIO
TITLE "Нет берегов"
PERFORMER "Пикник"
INDEX 01 11:52:00
TRACK 04 AUDIO
TITLE "Романс"
PERFORMER "Пикник"
INDEX 01 17:00:00
TRACK 05 AUDIO
TITLE "Это он"
PERFORMER "Пикник"
INDEX 01 19:17:00
TRACK 06 AUDIO
TITLE "Стоя на этой лестнице"
PERFORMER "Пикник"
INDEX 01 23:55:38
TRACK 07 AUDIO
TITLE "Дай себя сорвать"
PERFORMER "Пикник"
INDEX 01 29:04:00
TRACK 08 AUDIO
TITLE "Все остальное - дым"
PERFORMER "Пикник"
INDEX 01 34:15:21
ВТПО "Фирма Мелодия", 1989
Всесоюзная студия грамзаписи
Запись 1988 г.
Апрелевский ордена Ленина завод грампластинок
1990 Зак. 536. Тираж 30000
#77Лейбл: Matuzalem Records
Страна-производитель: Russia
Год издания: 1992
Продолжительность: 00:32:39
Треклист:
A1. Настоящие дни (4:12)
A2. Мы как трепетные птицы (4:53)
A3. Я пущенная стрела (4:40)
A4. Там, на самом краю земли (2:18)
B1. Течет большая река (4:50)
B2. С тех пор, как сгорели дома (4:59)
B3. Это река Ганг (2:37)
B4. Новая азбука (4:10)
REM GENRE "Rock"
REM DATE 1991
REM DISCID MZ 001
REM COMMENT "Matuzalem Records, 1992, Needledrop By Oleg39"
PERFORMER "Пикник"
TITLE "Харакири"
FILE "Piknik - 1991 - Harakiri [NLV 24-192].wv" WAVE
TRACK 01 AUDIO
TITLE "Настоящие дни"
PERFORMER "Пикник"
INDEX 01 00:00:00
TRACK 02 AUDIO
TITLE "Мы как трепетные птицы"
PERFORMER "Пикник"
INDEX 01 04:12:21
TRACK 03 AUDIO
TITLE "Я пущенная стрела"
PERFORMER "Пикник"
INDEX 01 09:05:37
TRACK 04 AUDIO
TITLE "Там, на самом краю земли"
PERFORMER "Пикник"
INDEX 01 13:45:13
TRACK 05 AUDIO
TITLE "Течет большая река"
PERFORMER "Пикник"
INDEX 01 16:02:58
TRACK 06 AUDIO
TITLE "С тех пор, как сгорели дома"
PERFORMER "Пикник"
INDEX 01 20:52:42
TRACK 07 AUDIO
TITLE "Это река Ганг"
PERFORMER "Пикник"
INDEX 01 25:51:34
TRACK 08 AUDIO
TITLE "Новая азбука"
PERFORMER "Пикник"
INDEX 01 28:28:45
Альбом записан в январе 1991 г. на Sonder Studio
Особая благодарность: ТО Кино-Театр "Эридан"
© 1991, Пикник
℗ 1992, MATUZALEM RECORDS
Не забывайте говорить Спасибо. Не уходите с раздачи!   
Торрент: Зарегистрирован [25 фев 2013, 13:35]
Статус:
Проверен
 
.torrent скачан: 0 раз
Хэш: 224c5afd9a80dfc79ded71f88f64a06fa3de5cf9
Размер: 2.93 ГБ (3 149 284 753 байт)
   Стать Автором раздачи
   
Цитата
  • Похожие торренты
    Ответы
    Просмотры
    Последнее сообщение

Вернуться в Отечественная рок-музыка (оцифровки)

Кто сейчас на конференции

Сейчас эту тему просматривают: нет зарегистрированных пользователей и гости: 1