(Rock/Heavy Metal) [LP] [24/192] Тяжелый День – Тяжелый День - 1989, FLAC (image+.cue), (Мелодия C60 28965-66 009)

 Статистика раздачи 
Размер: 1.43 ГБ   |  Зарегистрирован: 04 июл 2011, 12:21   |   .torrent скачан: 0 раз
Сидеров: 0  [ 0 байт/сек ]     Личеров: 0  [ 0 байт/сек ]  
  
Аватара пользователя
Главный редактор
Главный редактор
Я на сайте
 
Раздал: 90.01 ТБ
Скачал: 3.78 ТБ
Ратио: 24.248
Сообщения: 285158
Стаж: 9 лет 3 месяца 26 дней
Откуда: Санкт-Петербург

Тяжелый День
Жанр: Rock/Heavy Metal
Год выпуска: 1989
Лейбл: Мелодия
Страна-производитель: СССР
Аудио кодек: FLAC
Тип рипа: image+.cue
Формат записи: 32/192
Формат раздачи: 24/192
Продолжительность: 00:35:52
Источник оцифровки: автором раздачи
Код класса состояния винила: VG+
Устройство воспроизведения: "Arija - 102"
Предварительный усилитель: "AMX - 100 (LTO®)"
АЦП: Juli@
Программа-оцифровщик: Adobe Audition
Обработка: без обработки
Тэги в .cue sheet: прописаны
A1 Дай Мне Знать
A2 Берегись Жала
A3 Песенный Суздаль
A4 В Полет
B1 Огонь
B2 Бегство Из Неведения
B3 Сделай Вздох

REM GENRE Rock/Heavy Metal
REM DATE 1989
REM COMENT Мелодия C60 28965-66 009 LP
TITLE Тяжелый День
PERFORMER Тяжелый День
FILE "Side 1.flac" WAVE
TRACK 01 AUDIO
TITLE "Дай Мне Знать"
INDEX 01 00:00:00
TRACK 02 AUDIO
TITLE "Берегись Жала"
INDEX 01 03:30:60
TRACK 03 AUDIO
TITLE "Песенный Суздаль"
INDEX 01 08:20:40
TRACK 04 AUDIO
TITLE "В Полет"
INDEX 01 13:01:15
FILE "Side 2.flac" WAVE
TRACK 05 AUDIO
TITLE "Огонь"
INDEX 01 00:00:00
TRACK 06 AUDIO
TITLE "Бегство Из Неведения"
INDEX 01 08:40:59
TRACK 07 AUDIO
TITLE "Сделай Вздох"
INDEX 01 13:57:54
Тридцатисекундные сэмплы с каждой стороны пластинки в папке 03. Samples.
Не забывайте говорить Спасибо. Не уходите с раздачи!   
Торрент: Зарегистрирован [04 июл 2011, 12:21]
Статус:
Проверен
 
.torrent скачан: 0 раз
Хэш: 839d3ace202b2c42fc2f429ae72e737a9ca86685
Размер: 1.43 ГБ (1 531 462 858 байт)
   Стать Автором раздачи
   
Цитата
  • Похожие торренты
    Ответы
    Просмотры
    Последнее сообщение

Вернуться в Отечественная рок-музыка (оцифровки)

Кто сейчас на конференции

Сейчас эту тему просматривают: нет зарегистрированных пользователей и гости: 1