(Rock) [LP] [24/96] Tõnis Mägi & Music-Seif/Тынис Мяги и Мюзик-сейф (запись 1982) - 1983, APE (image+.cue), (Мелодия C60 19439 002)

 Статистика раздачи 
Размер: 820.15 МБ   |  Зарегистрирован: 30 июн 2011, 04:27   |   .torrent скачан: 0 раз
Сидеров: 0  [ 0 байт/сек ]     Личеров: 0  [ 0 байт/сек ]  
  
Аватара пользователя
Главный редактор
Главный редактор
 
Раздал: 90.01 ТБ
Скачал: 3.78 ТБ
Ратио: 24.248
Сообщения: 285171
Стаж: 9 лет 3 месяца 26 дней
Откуда: Санкт-Петербург

Тынис Мяги и "Мюзик-сейф"
Жанр: Rock
Год выпуска: 1983
Лейбл: Мелодия
Страна-производитель: СССР
Аудио кодек: APE
Тип рипа: image+.cue
Формат записи: 32/192
Формат раздачи: 24/96
Продолжительность: 00:40:26
Источник оцифровки: автором раздачи
Код класса состояния винила: VG
Устройство воспроизведения: "Arija - 102"
Предварительный усилитель: "AMX - 100 (LTO®)"
АЦП: Juli@
Программа-оцифровщик: Adobe Audition
Обработка: удаление щелчков
Тэги в .cue sheet: прописаны
01. Рок-н-ролл "Мюзик-сейфа" (Б. Сигер - Т. Мяги)
02. Я выбрал путь (Б. Сигер - Т. Мяги)
03. Ночной полет (Р. Блэкмор - Т. Мяги)
04. Неправильный телефон (Э. Вярк - О Ардер)
05. Злой папаша (музыка и сл. Т. Мяги)
06. Посвящение (музыка и сл. Т. Мяги)
07. Доктор, помоги (музыка и сл. Т. Мяги)
08. Блюз в одиночестве (музыка и сл. Т. Мяги)
09. Тонущая лодка (Э. Вярк- Т. Мяги)
10. Сказочный сон (Э. Вярк- Т. Мяги)

На эстонском яззыке.
Ансамбль "МЮЗИК-СЕЙФ" худ. рук. Мати Ваарманн. Запись 1982 года, Таллинская студия грамзаписи.
REM GENRE Rock
REM DATE 1983
REM COMENT Мелодия C60 19439 002 LP
TITLE Тынис Мяги и ансамбль Мюзик-сейф
PERFORMER Тынис Мяги
FILE "Tonis Magi & M.-Seif - 1983.ape" WAVE
TRACK 01 AUDIO
TITLE "Рок-н-ролл Мюзик-сейфа"
INDEX 01 00:00:00
TRACK 02 AUDIO
TITLE "Я выбрал путь"
INDEX 01 04:29:72
TRACK 03 AUDIO
TITLE "Ночной полет"
INDEX 01 09:20:39
TRACK 04 AUDIO
TITLE "Неправильный телефон"
INDEX 01 14:15:51
TRACK 05 AUDIO
TITLE "Злой папаша"
INDEX 01 19:00:16
TRACK 06 AUDIO
TITLE "Посвящение"
INDEX 01 21:11:68
TRACK 07 AUDIO
TITLE "Доктор, помоги"
INDEX 01 24:16:43
TRACK 08 AUDIO
TITLE "Блюз в одиночестве"
INDEX 01 27:09:01
TRACK 09 AUDIO
TITLE "Тонущая лодка"
INDEX 01 32:13:27
TRACK 10 AUDIO
TITLE "Сказочный сон"
INDEX 01 35:55:05
Тридцатисекундные сэмплы с каждой стороны пластинки в папке раздачи.
Хочу добавить, что послушав эту пластинку в 1983 году, я "открыл" для себя Тыниса Мяги, уже хорошо известного, благодаря частому исполнению на TV попсовых песен, как достаточно интересного рок-музыканта, поэта и композитора. Для тех, кто уже забыл, или вообще не знает о ком речь - информация под спойлером.
Биография
Тынис Мяги родился 18 ноября 1948 года в Эстонии в музыкальной семье, с ранних лет увлекался музыкой. Учился игре на гитаре, замещал гитаристов ансамбля «Юуниорид» (1965). После окончания средней школы работал на таллинском заводе радиоизмерительных приборов и бытовой радиотехники «Пунане РЭТ». Начиная с 1966 года являлся гитаристом ансамбля «Рютмикуд». После срочной службы в Советской Армии был солистом ансамбля «Балтика». Затем пел в ансамблях «Кярьед», «Лайне», «Мюзик Сейф», «777» и «Ultima Thule».
Стал известен в СССР в 1970-е—1980-е годы, исполняя такие шлягеры как «Любимый дворик», «Остановите музыку», «Я не умею танцевать», «Секундомер», «Сердце не спит», а его песня «Детектив (Спасите разбитое сердце моё)» в его исполнении стала всесоюзным хитом. С успехом дебютировал в передаче "Песня Года". Несмотря на то, что всесоюзную известность Тынису Мяги принесли эстрадные песни, он выступал также как солист эстонской рок-группы Ultima Thule. Известна их версия "Шизгары" - Veenus - на эстонском языке. Это было достаточно ультрамодно и смело для того времени.
В 1987 году Тынис Мяги покидает российскую сцену и на какое-то время переезжает в Швецию, где поет в маленьких барах и, преосмысливая свою жизнь, пытается понять, куда двигаться дальше, пытается найти новые ориентиры в жизни. По его собственным словам, он даже подумывал остаться в Швеции навсегда. Но, видимо, любовь к родине перевесила, и он вернулся в Эстонию.
Сейчас Тынис Мяги проживает в городе Тарту, играет в театре, пишет песни, выступает с концертами. Его имидж изменился. Он больше не тот смешной недотепа, в образе которого его многие помнят. Сейчас в творчестве он больше напминает Элтона Джона, исполняя лиричные баллады-романсы с философским смыслом собственного сочинения. На родном языке. Иногда он выступает вместе со своей женой Кярт Йохансон, которая тоже певица. Кярт младше Тыниса на 25 лет, у них есть дочь. Вообще, по состоянию на 2000 год у Тыниса Мяги было трое детей - 3 дочери (от разных браков). Но на одном сайте появилась информация, что у него 4 дочери. Это неточно, но, возможно, у них с Кярт уже 2 дочери. Но это непроверенная информация.
Тынис Мяги очень много работал и гастролировал в период своей всесоюзной популярности, поэтому редко бывал дома, что по его словам, послужило поводом для предыдущего развода. Но именно эта его увлеченность работой и принесла ему любовь миллионов людей, многие из которых до сих пор помнят о нем с теплотой. В Интернете много таких вопросов: "Куда пропал Тынис Мяги? Что с ним сейчас?" Этот интерес понятен, ведь многие помнят его с детства, потому что на его выступления всегда было интересно смотреть. Яркий, зажигательный, обаятельный, харизматичный, эмоциональный, искренний, смешной, подвижный, в общем "неправильный эстонец", Тынис Мяги всегда выгодно отличался от многих своих коллег-певцов, стоявших столбом на сцене с серьезными лицами. Это детям было скучно, а вот "Спасите, спасите..." - совсем другое дело! И сейчас не мешает даже то недопонимание, которое случилось между нашими странами, в России все равно помнят и любят Тыниса Мяги. Потому что, перефразируя его песню "Детектив": "Он один такой, другого такого на свете нет!"
Не забывайте говорить Спасибо. Не уходите с раздачи!   
Торрент: Зарегистрирован [30 июн 2011, 04:27]
Статус:
Проверен
 
.torrent скачан: 0 раз
Хэш: 06379449f2b81979375fb3ab2e124d6d90d8be39
Размер: 820.15 МБ (859 992 730 байт)
   Стать Автором раздачи
   
Цитата

Вернуться в Отечественная рок-музыка (оцифровки)

Кто сейчас на конференции

Сейчас эту тему просматривают: нет зарегистрированных пользователей и гости: 1