(Rock) [16/44,1] Машина Времени - Концерт в Подольске (1983) [FLAC (image+cue), lossless]

 Статистика раздачи 
Размер: 372.08 МБ   |  Зарегистрирован: 28 июн 2012, 20:08   |   .torrent скачан: 0 раз
Сидеров: 0  [ 0 байт/сек ]     Личеров: 0  [ 0 байт/сек ]  
  
Аватара пользователя
Главный редактор
Главный редактор
 
Раздал: 90.01 ТБ
Скачал: 3.78 ТБ
Ратио: 24.248
Сообщения: 285171
Стаж: 9 лет 3 месяца 26 дней
Откуда: Санкт-Петербург

Машина Времени - Концерт в Подольске

Исполнитель: Машина Времени
Альбом: Концерт в Подольске
Тип релиза: Бутлег [Bootleg]
Страна: СССР
Дата выпуска: 1983
Жанр: Rock
Формат: FLAC (image cue)
Битрейт: 841 kbps
Продолжительность: 00:51:49
Источник: cd, купленный в начале 90 на Горбушке
Треклист:
01.Вступление [00:00:27]
02.Обращение к друзьям [00:02:18]
03.Костёр [00:03:28]
04.Бег по кругу [00:03:32]
05.Перемена мест [00:04:19]
06.Барьер [00:05:43]
07.Скворец [00:04:15]
08.Объявление состава [00:00:39]
09.Я сюда ещё вернусь [00:05:41]
10.Старый корабль [00:03:33]
11.Новый дом [00:02:35]
12.Старый рок-н-ролл [00:03:29]
13. 13_19. Попурри [00:00:40]
14.Марионетки [00:00:50]
15.Скачки [00:01:34]
16.Кого ты хотел удивить [00:01:05]
17.Синяя птица [00:01:00]
18.За тех кто в море [00:01:26]
19.Поворот [00:02:49]
20.Памяти В.Высоцкого [00:02:17]
Летний концерт в Подольске состоявшийся в июне 1983 года. Источник оцифровки мне не известен.
На обложке стоит 1982 год, но прислушавшись к мнениям Знатоков, решил исправить на 1983.
[url=http:// СПАМ пара треков(17mb) на пробу
V0.99 prebeta 5 from 4. May 2009
Отчёт EAC об извлечении, выполненном 28. июня 2012, 22:29
Машина Времени / Концерт в Подольске
Дисковод: ATAPI iHAS524 B Adapter: 4 ID: 0
Режим чтения: :
: Да
: Да
: Нет
Коррекция смещения при чтении: : 6
Способность читать области Lead-in и Lead-out : Нет
Заполнение пропущенных сэмплов тишиной : Да
Удаление блоков с тишиной в начале и конце : Нет
: Да
: Встроенный Win32-интерфейс для Win NT/2000
Выходной формат: : Пользовательский кодировщик
: 768 kBit/s
: Высокий
: Нет
: C:\Program Files (x86)\Exact Audio Copy\FLAC\FLAC.EXE
Дополнительные параметры: : -6 -V -T "ARTIST=%a" -T "TITLE=%t" -T "ALBUM=%g" -T "DATE=%y" -T "TRACKNUMBER=%n" -T "GENRE=%m" -T "COMMENT=%e" %s -o %d
Смещение при сжатии: : 0
| | | |
--------------------------------------------
1 | 0:00.00 | 0:27.47 | 0 | 2071
2 | 0:27.47 | 2:18.46 | 2072 | 12467
3 | 2:46.18 | 3:28.22 | 12468 | 28089
4 | 6:14.40 | 3:32.55 | 28090 | 44044
5 | 9:47.20 | 4:19.48 | 44045 | 63517
6 | 14:06.68 | 5:43.29 | 63518 | 89271
7 | 19:50.22 | 4:15.36 | 89272 | 108432
8 | 24:05.58 | 0:39.34 | 108433 | 111391
9 | 24:45.17 | 5:41.47 | 111392 | 137013
10 | 30:26.64 | 3:33.26 | 137014 | 153014
11 | 34:00.15 | 2:35.44 | 153015 | 164683
12 | 36:35.59 | 3:29.50 | 164684 | 180408
13 | 40:05.34 | 0:40.16 | 180409 | 183424
14 | 40:45.50 | 0:50.13 | 183425 | 187187
15 | 41:35.63 | 1:34.68 | 187188 | 194305
16 | 43:10.56 | 1:05.21 | 194306 | 199201
17 | 44:16.02 | 1:00.40 | 199202 | 203741
18 | 45:16.42 | 1:26.27 | 203742 | 210218
19 | 46:42.69 | 2:49.16 | 210219 | 222909
20 | 49:32.10 | 2:17.03 | 222910 | 233187
Характеристики диапазона извлечения и сообщения об ошибках
Выбранный диапазон
Имя файла J:\Музыка\МВ\Машина Времени - Концерт в Подольске.wav
Пиковый уровень 100.0 %
Качество диапазона 100.0 %
CRC копии CDC97895
Копирование... OK
Ошибок не произошло
Конец отчёта
[url=https://fastpic.ru/view/40/2012/0629/833114284edbffedef9aedfff18bf10d.jpg.html][/url]
Не забывайте говорить Спасибо. Не уходите с раздачи!   
Торрент: Зарегистрирован [28 июн 2012, 20:08]
Статус:
Проверен
 
.torrent скачан: 0 раз
Хэш: 2842d5ad28c51efc0fed865d4ebfdb26a70a1c4c
Размер: 372.08 МБ (390 151 770 байт)
   Стать Автором раздачи
   
Цитата

Вернуться в Отечественная рок-музыка (оцифровки)

Кто сейчас на конференции

Сейчас эту тему просматривают: нет зарегистрированных пользователей и гости: 1