(Electronic) [LP] [24/192] Борис Гребенщиков и Deadушки - 2012, WavPack (image+.cue)

 Статистика раздачи 
Размер: 1.75 ГБ   |  Зарегистрирован: 20 янв 2013, 08:09   |   .torrent скачан: 0 раз
Сидеров: 0  [ 0 байт/сек ]     Личеров: 0  [ 0 байт/сек ]  
  
Аватара пользователя
Главный редактор
Главный редактор
 
Раздал: 90.01 ТБ
Скачал: 3.78 ТБ
Ратио: 24.248
Сообщения: 286171
Стаж: 9 лет 4 месяца 3 дня
Откуда: Санкт-Петербург

Борис Гребенщиков и Deadушки
Жанр: Electronic
Год выпуска: 1998 / 2012
Лейбл: Мирумир
Страна-производитель: Германия
Аудио кодек: WavPack
Тип рипа: image+.cue
Формат записи: 24bit/192kHz
Формат раздачи: 24bit/192kHz
Продолжительность: 00:43:28
Треклист:
01 - Пепел
02 - Змея
03 - Нож режет воду
04 - Аристократ
05 - Сегодня ночью кто-то ждет
06 - Прекрасный дилетант
07 - Сны о чем-то большем
08 - Вавилон
Источник оцифровки: Oleg39
Код класса состояния винила: NM
REM GENRE "Rock"
REM DATE 1998
REM DISCID MIR 100356
REM COMMENT "Мирумир, 2012. Needledrop By Oleg39"
PERFORMER "Борис Гребенщиков и Deadушки"
TITLE "Борис Гребенщиков и Deadушки"
FILE "Boris Grebenschikov i Deadushki - 1998 - Boris Grebenschikov i Deadushki [NLV 24-192].wv" WAVE
TRACK 01 AUDIO
TITLE "Пепел"
PERFORMER ""
INDEX 01 00:00:00
TRACK 02 AUDIO
TITLE "Змея"
PERFORMER ""
INDEX 01 03:50:00
TRACK 03 AUDIO
TITLE "Нож режет воду"
PERFORMER ""
INDEX 01 07:38:40
TRACK 04 AUDIO
TITLE "Аристократ"
PERFORMER ""
INDEX 01 13:24:60
TRACK 05 AUDIO
TITLE "Сегодня ночью кто-то ждет"
PERFORMER ""
INDEX 01 19:23:17
TRACK 06 AUDIO
TITLE "Прекрасный дилетант"
PERFORMER ""
INDEX 01 23:31:60
TRACK 07 AUDIO
TITLE "Сны о чем-то большем"
PERFORMER ""
INDEX 01 29:56:60
TRACK 08 AUDIO
TITLE "Вавилон"
PERFORMER ""
INDEX 01 36:27:13
Устройство воспроизведения: Thorens TD124 mkII + SME 3012 Series II
ГЗМ: Clearaudio Stradivari
Фонокорректор: Van den Hul The Grail (Accumulator driven version)
АЦП: E-MU 0404 USB (ASIO)
Программа-оцифровщик: WaveLab 6
Обработка: Сжатие в wv - Monkey's Audio 4.01, Теги - CUEBeautifier 0.4.31.2
Формат оцифровки: 24bit/192kHz
Формат раздачи: 24bit/192kHz
Не забывайте говорить Спасибо. Не уходите с раздачи!   
Торрент: Зарегистрирован [20 янв 2013, 08:09]
Статус:
Проверен
 
.torrent скачан: 0 раз
Хэш: d4fde5d695d33f577cebe14748ae67a53ad7fe92
Размер: 1.75 ГБ (1 876 260 654 байт)
   Стать Автором раздачи
   
Цитата

Вернуться в Отечественная рок-музыка (оцифровки)

Кто сейчас на конференции

Сейчас эту тему просматривают: нет зарегистрированных пользователей и гости: 1