(Rock/Alternative) ВОЛАНД - "Отражения" (2007), FLAC (tracks), lossless

 Статистика раздачи 
Размер: 200.32 МБ   |  Зарегистрирован: 29 янв 2009, 17:59   |   .torrent скачан: 0 раз
Сидеров: 0  [ 0 байт/сек ]     Личеров: 0  [ 0 байт/сек ]  
  
Аватара пользователя
Главный редактор
Главный редактор
 
Раздал: 90.01 ТБ
Скачал: 3.78 ТБ
Ратио: 24.248
Сообщения: 285171
Стаж: 9 лет 3 месяца 26 дней
Откуда: Санкт-Петербург

(Rock/Alternative) ВОЛАНД - "Отражения" (2007)
Жанр: Rock/Alternative
Год выпуска диска: 2007
Производитель диска: Россия
Аудио кодек: FLAC
Тип рипа: tracks
Битрейт аудио: lossless
Продолжительность: 28:35
Трэклист:
1. Рисую (4:33)
2. Отражения (4:07)
3. Следствие помех (3:38)
4. Зверь (4:42)
5. Нечего взять с собой (3:45)
6. Зенит-чемпион! (4:20)
7. Телешоу (3:30)
Доп. информация: Альбом 2007 года, записанный на студии "ДЖАМП!Rec."
В материал альбома вошли песни нового периода в творчестве группы - более лиричные и мелодичные (хотя и не без обычной для группы жесткости и энергетики исполнения). В этой записи использованы тексты других авторов, присутствует привычный ремейк ("Зенит-чемпион" группы СЕКРЕТ образца 1985 г.) и переаранжированная для трио традиционная "фирменная" песня ("Телешоу" - от STAKKA BO, "Here We Go").
эти записи выполнены профессионалами в звукозаписывающей студии, по договору от музыкального Фонда как юридического лица, использовать которые руководство Фонда имеет право по своему усмотрению с согласия музыкантов. Я являюсь учредителем Фонда и студии зукозаписи при ней, а также непосредственно участником группы ВОЛАНД, автором текстов, аранжировщиком и выпускающим саунд-продюсером, вполне представляющим себе происхождение данных записей.
Треки с этого альбома послужили основой концертной программы 2006-2008 г.
На этом альбоме группа закончила использовать формат обязательного регулярного СD и полностью перешла на интернет-релизы (выкладываемые в сеть треки, сразу же, после записи). По-прежнему, весь музыкальный контент группы ВОЛАНД и права на него доступны любому желающему бесплатно.
Все новости группы здесь http://vk.com/volandband или http://volandband.ru
- Класс состояния винила нет
- Предварительный усилитель нет
- АЦП каскад АЦП Tascam MD-CD1, оптический SPDIF вход Audigy Platinum 2 для сведения и постмастеринга (24/96).
- Программа-оцифровщик для сэмплов и потрекового премастеринга - Sony SF, для прямого сброса - Acid и Vegas.
- Обработка стандартный набор работ в Adobe Audition, Sony Sound Forge.
- Формат записи (Bit/kHz) 24/96>.
- Формат раздачи (Bit/kHz) 16/44.1>.
"Зенит-чемпион"


"Следствие помех"

REM COMMENT Encoded by FLAC v1.1.4a with FLAC Frontend v1.7.1
TITLE "ВОЛАНД-07 отражения"
REM REPLAYGAIN_ALBUM_GAIN -10.70 dB
REM REPLAYGAIN_ALBUM_PEAK 1.000000
FILE "01_рисую.flac" WAVE
TRACK 01 AUDIO
TITLE "рисую"
PERFORMER "01"
REM REPLAYGAIN_TRACK_GAIN -10.22 dB
REM REPLAYGAIN_TRACK_PEAK 0.998993
INDEX 01 00:00:00
FILE "02_отражения.flac" WAVE
TRACK 02 AUDIO
TITLE "отражения"
PERFORMER "02"
REM REPLAYGAIN_TRACK_GAIN -10.57 dB
REM REPLAYGAIN_TRACK_PEAK 1.000000
INDEX 01 00:00:00
FILE "03_следствие помех.flac" WAVE
TRACK 03 AUDIO
TITLE "следствие помех"
PERFORMER "03"
REM REPLAYGAIN_TRACK_GAIN -11.07 dB
REM REPLAYGAIN_TRACK_PEAK 1.000000
INDEX 01 00:00:00
FILE "05_зверь.flac" WAVE
TRACK 04 AUDIO
TITLE "зверь"
PERFORMER "05"
REM REPLAYGAIN_TRACK_GAIN -10.27 dB
REM REPLAYGAIN_TRACK_PEAK 0.998993
INDEX 01 00:00:00
FILE "05_нечего.flac" WAVE
TRACK 05 AUDIO
TITLE "нечего"
PERFORMER "05"
REM REPLAYGAIN_TRACK_GAIN -10.95 dB
REM REPLAYGAIN_TRACK_PEAK 1.000000
INDEX 01 00:00:00
FILE "06_зенит-чемпион.flac" WAVE
TRACK 06 AUDIO
TITLE "зенит-чемпион"
PERFORMER "06"
REM REPLAYGAIN_TRACK_GAIN -11.18 dB
REM REPLAYGAIN_TRACK_PEAK 1.000000
INDEX 01 00:00:00
FILE "07_телешоу.flac" WAVE
TRACK 07 AUDIO
TITLE "телешоу"
PERFORMER "07"
REM REPLAYGAIN_TRACK_GAIN -9.95 dB
REM REPLAYGAIN_TRACK_PEAK 0.998993
INDEX 01 00:00:00
Другие альбомы группы ВОЛАНД:
"Антиформат" (2004)
"С Нами Музыка!" (2001)
"Альбомба" (1999)
Не забывайте говорить Спасибо. Не уходите с раздачи!   
Торрент: Зарегистрирован [29 янв 2009, 17:59]
Статус:
Проверен
 
.torrent скачан: 0 раз
Хэш: a60547314862f4a75d4fd7d0a0f9eafa5d08efce
Размер: 200.32 МБ (210 047 079 байт)
   Стать Автором раздачи
   
Цитата

Вернуться в Отечественная рок-музыка (оцифровки)

Кто сейчас на конференции

Сейчас эту тему просматривают: нет зарегистрированных пользователей и гости: 1