(Rock/Alternative) ВОЛАНД, "Антиформат" (2004), FLAC (tracks), lossless

 Статистика раздачи 
Размер: 514.08 МБ   |  Зарегистрирован: 12 янв 2009, 21:12   |   .torrent скачан: 0 раз
Сидеров: 0  [ 0 байт/сек ]     Личеров: 0  [ 0 байт/сек ]  
  
Аватара пользователя
Главный редактор
Главный редактор
Я на сайте
 
Раздал: 90.01 ТБ
Скачал: 3.78 ТБ
Ратио: 24.248
Сообщения: 285472
Стаж: 9 лет 3 месяца 28 дней
Откуда: Санкт-Петербург

ВОЛАНД, "Антиформат" (2004)
Жанр: Rock/Alternative
Год выпуска диска: 2004
Производитель диска: Россия
Аудио кодек: FLAC (tracks)
Тип рипа: tracks
Битрейт аудио: lossless, 16/44.1
Продолжительность: 1:15:39
Трэклист:
01. диско (4:11)
02. мучо (4:22)
03. к тучам (4:22)
04. шерлок х (4:29)
05. т.п.л. (4:52)
06. рычаги (3:24)
07. считалочка (3:58)
08. враг (3:35)
09. частушка (2:14)
10. ультра (3:16)
11. город (3:52)
12. просьба (2:53)
13. привет (1:16)
14. чунга (3:58)
15. луч солнца (3:21)
16. дельфины (5:22)
17. тары-бары (4:21)
18. просьба-караоке (2:50)
19. гей!(utah club remix) (5:01)
20. dolphins (4:02)
Доп. информация: Альбом 2004 года, записанный (как всегда) на студии "ДЖАМП!Rec."
В материал вошли некоторые песни, ежегодно создаваемые для традиционных открытых концертов группы ВОЛАНД к своему Дню рождения (июнь 1990 г. - первое выступление группы), которые проходят в празднуемый в России День Молодежи. Это ремейки на детские и популярные песни разных времен и народов за последние несколько лет (традицию представлять на каждый летний праздник новую песню в таком жанре группа поддерживает со времени своего основания).
Треки с этого альбома послужили основой концертной программы 2002-2005 г.
Все новости группы здесь http://vk.com/volandband или http://volandband.ru
- Класс состояния винила нет
- Предварительный усилитель нет
- АЦП каскад АЦП Tascam MD-CD1, оптический SPDIF вход Audigy Platinum 2 для сведения и постмастеринга (24/96).
- Программа-оцифровщик для сэмплов и потрекового премастеринга - Sony SF, для прямого сброса - Acid и Vegas.
- Обработка стандартный набор работ в Adobe Audition, Sony Sound Forge.
- Формат записи (Bit/kHz) 24/96>.
- Формат раздачи (Bit/kHz) 16/44.1>.
"Диско"


Т.П.Л.

REM COMMENT Encoded by FLAC v1.1.4a with FLAC Frontend v1.7.1
TITLE "ВОЛАНД-04 антиформат"
REM REPLAYGAIN_ALBUM_GAIN -9.27 dB
REM REPLAYGAIN_ALBUM_PEAK 1.000000
FILE "01 диско.flac" WAVE
TRACK 01 AUDIO
REM REPLAYGAIN_TRACK_GAIN -8.97 dB
REM REPLAYGAIN_TRACK_PEAK 0.987549
INDEX 01 00:00:00
FILE "02 мучо.flac" WAVE
TRACK 02 AUDIO
REM REPLAYGAIN_TRACK_GAIN -9.36 dB
REM REPLAYGAIN_TRACK_PEAK 0.999451
INDEX 01 00:00:00
FILE "03 к тучам.flac" WAVE
TRACK 03 AUDIO
REM REPLAYGAIN_TRACK_GAIN -9.85 dB
REM REPLAYGAIN_TRACK_PEAK 0.987549
INDEX 01 00:00:00
FILE "04 шерлок х.flac" WAVE
TRACK 04 AUDIO
REM REPLAYGAIN_TRACK_GAIN -8.90 dB
REM REPLAYGAIN_TRACK_PEAK 1.000000
INDEX 01 00:00:00
FILE "05 т.п.л..flac" WAVE
TRACK 05 AUDIO
REM REPLAYGAIN_TRACK_GAIN -9.93 dB
REM REPLAYGAIN_TRACK_PEAK 0.987579
INDEX 01 00:00:00
FILE "06 рычаги.flac" WAVE
TRACK 06 AUDIO
REM REPLAYGAIN_TRACK_GAIN -8.94 dB
REM REPLAYGAIN_TRACK_PEAK 0.987549
INDEX 01 00:00:00
FILE "07 считалочка.flac" WAVE
TRACK 07 AUDIO
REM REPLAYGAIN_TRACK_GAIN -7.88 dB
REM REPLAYGAIN_TRACK_PEAK 0.987549
INDEX 01 00:00:00
FILE "08 враг.flac" WAVE
TRACK 08 AUDIO
REM REPLAYGAIN_TRACK_GAIN -8.08 dB
REM REPLAYGAIN_TRACK_PEAK 0.987549
INDEX 01 00:00:00
FILE "09 частушка.flac" WAVE
TRACK 09 AUDIO
REM REPLAYGAIN_TRACK_GAIN -10.62 dB
REM REPLAYGAIN_TRACK_PEAK 0.987549
INDEX 01 00:00:00
FILE "10 ультра.flac" WAVE
TRACK 10 AUDIO
REM REPLAYGAIN_TRACK_GAIN -9.47 dB
REM REPLAYGAIN_TRACK_PEAK 0.987549
INDEX 01 00:00:00
FILE "11 город.flac" WAVE
TRACK 11 AUDIO
REM REPLAYGAIN_TRACK_GAIN -8.48 dB
REM REPLAYGAIN_TRACK_PEAK 0.987549
INDEX 01 00:00:00
FILE "12 просьба.flac" WAVE
TRACK 12 AUDIO
REM REPLAYGAIN_TRACK_GAIN -9.20 dB
REM REPLAYGAIN_TRACK_PEAK 0.987549
INDEX 01 00:00:00
FILE "13 привет.flac" WAVE
TRACK 13 AUDIO
REM REPLAYGAIN_TRACK_GAIN -9.86 dB
REM REPLAYGAIN_TRACK_PEAK 0.987549
INDEX 01 00:00:00
FILE "14 чунга.flac" WAVE
TRACK 14 AUDIO
REM REPLAYGAIN_TRACK_GAIN -8.60 dB
REM REPLAYGAIN_TRACK_PEAK 0.987549
INDEX 01 00:00:00
FILE "15 луч солнца.flac" WAVE
TRACK 15 AUDIO
REM REPLAYGAIN_TRACK_GAIN -11.40 dB
REM REPLAYGAIN_TRACK_PEAK 1.000000
INDEX 01 00:00:00
FILE "16 дельфины.flac" WAVE
TRACK 16 AUDIO
REM REPLAYGAIN_TRACK_GAIN -8.53 dB
REM REPLAYGAIN_TRACK_PEAK 0.987549
INDEX 01 00:00:00
FILE "17 тары-бары.flac" WAVE
TRACK 17 AUDIO
REM REPLAYGAIN_TRACK_GAIN -9.79 dB
REM REPLAYGAIN_TRACK_PEAK 0.987549
INDEX 01 00:00:00
FILE "18 просьба-караоке.flac" WAVE
TRACK 18 AUDIO
REM REPLAYGAIN_TRACK_GAIN -8.69 dB
REM REPLAYGAIN_TRACK_PEAK 1.000000
INDEX 01 00:00:00
FILE "19 гей!(utah club remix).flac" WAVE
TRACK 19 AUDIO
REM REPLAYGAIN_TRACK_GAIN -6.75 dB
REM REPLAYGAIN_TRACK_PEAK 1.000000
INDEX 01 00:00:00
FILE "20 dolphins.flac" WAVE
TRACK 20 AUDIO
REM REPLAYGAIN_TRACK_GAIN -6.94 dB
REM REPLAYGAIN_TRACK_PEAK 0.998993
INDEX 01 00:00:00
Другие альбомы группы ВОЛАНД:
"Отражения" (2007)
"С Нами Музыка!" (2001)
"Альбомба" (1999)
Не забывайте говорить Спасибо. Не уходите с раздачи!   
Торрент: Зарегистрирован [12 янв 2009, 21:12]
Статус:
Проверен
 
.torrent скачан: 0 раз
Хэш: 51e277f215aa596fca6b7ce3b504a2eef9c9597d
Размер: 514.08 МБ (539 051 144 байт)
   Стать Автором раздачи
   
Цитата
  • Похожие торренты
    Ответы
    Просмотры
    Последнее сообщение

Вернуться в Отечественная рок-музыка (оцифровки)

Кто сейчас на конференции

Сейчас эту тему просматривают: нет зарегистрированных пользователей и гости: 1