(Rock/Alternative)[][16/44.1] ВОЛАНД - "С Нами Музыка!" (2001), FLAC (tracks), lossless

 Статистика раздачи 
Размер: 344.36 МБ   |  Зарегистрирован: 10 янв 2009, 17:12   |   .torrent скачан: 0 раз
Сидеров: 0  [ 0 байт/сек ]     Личеров: 0  [ 0 байт/сек ]  
  
Аватара пользователя
Главный редактор
Главный редактор
 
Раздал: 90.01 ТБ
Скачал: 3.78 ТБ
Ратио: 24.248
Сообщения: 285975
Стаж: 9 лет 4 месяца 1 день
Откуда: Санкт-Петербург

ВОЛАНД, "С Нами Музыка" (2001)
Жанр: Rock/Alternative
Год выпуска диска: 2001
Производитель диска: Россия
Аудио кодек: FLAC (tracks)
Тип рипа: tracks
Битрейт аудио: lossless, 16/44.1
Продолжительность: 54:38
Трэклист:
01. Гей ! (2:27)
02. Трубы (3:06)
03. Музыка (2:44)
04. На восток (3:51)
05. Налетай (2:46)
06. Тот, кто (3:58)
07. Мотив (0:59)
08. Гвоздь, подкова (2:44)
09. На обочине (4:13)
10. Человек идет (4:18)
11. История (4:21)
12. R`N`R (1:06)
13. Depressive # 13 (4:47)
14. Одиночество (4:38)
15. Немой RAPPP (1:19)
16. На катке (3:41)
17. Все на ДЖАМП ! (3:11)
18. Sтепь by Sтепь Around (0:29)
Доп. информация: ВОЛАНД, рок-группа, г.Кириши (Ленинградская обл).
Первый альбом группы, записанный в новом составе после смены барабанщика Сергея Куклина на Вадима Макарова.
Данные песни послужили основой концертной программы 1999-2003 г.
Все новости группы здесь http://vk.com/volandband или http://volandband.ru
- Класс состояния винила нет
- Предварительный усилитель нет
- АЦП каскад АЦП Sony MDS-530, оптический SPDIF вход Audigy Platinum 2 для сведения и постмастеринга (24/96).
- Программа-оцифровщик для сэмплов и потрекового премастеринга - Sony SF, для прямого сброса - Acid и Vegas.
- Обработка стандартный набор работ в Vegas, Sound Forge.
- Формат записи (Bit/kHz) 24/96>.
- Формат раздачи (Bit/kHz) 16/44.1>.
На Восток


Трубы

REM COMMENT Encoded by FLAC v1.1.4a with FLAC Frontend v1.7.1
TITLE "ВОЛАНД-01 с нами музыка !"
REM REPLAYGAIN_ALBUM_GAIN -5.62 dB
REM REPLAYGAIN_ALBUM_PEAK 0.966034
FILE "01 Гей !.flac" WAVE
TRACK 01 AUDIO
REM REPLAYGAIN_TRACK_GAIN -5.86 dB
REM REPLAYGAIN_TRACK_PEAK 0.966034
INDEX 01 00:00:00
FILE "02 Трубы.flac" WAVE
TRACK 02 AUDIO
REM REPLAYGAIN_TRACK_GAIN -4.14 dB
REM REPLAYGAIN_TRACK_PEAK 0.966034
INDEX 01 00:00:00
FILE "03 Музыка.flac" WAVE
TRACK 03 AUDIO
REM REPLAYGAIN_TRACK_GAIN -5.43 dB
REM REPLAYGAIN_TRACK_PEAK 0.966034
INDEX 01 00:00:00
FILE "04 На восток.flac" WAVE
TRACK 04 AUDIO
REM REPLAYGAIN_TRACK_GAIN -6.39 dB
REM REPLAYGAIN_TRACK_PEAK 0.966034
INDEX 01 00:00:00
FILE "05 Налетай.flac" WAVE
TRACK 05 AUDIO
REM REPLAYGAIN_TRACK_GAIN -6.63 dB
REM REPLAYGAIN_TRACK_PEAK 0.966034
INDEX 01 00:00:00
FILE "06 Тот, кто.flac" WAVE
TRACK 06 AUDIO
REM REPLAYGAIN_TRACK_GAIN -6.16 dB
REM REPLAYGAIN_TRACK_PEAK 0.966034
INDEX 01 00:00:00
FILE "07 Мотив.flac" WAVE
TRACK 07 AUDIO
REM REPLAYGAIN_TRACK_GAIN -3.70 dB
REM REPLAYGAIN_TRACK_PEAK 0.966034
INDEX 01 00:00:00
FILE "08 Гвоздь, подкова.flac" WAVE
TRACK 08 AUDIO
REM REPLAYGAIN_TRACK_GAIN -4.72 dB
REM REPLAYGAIN_TRACK_PEAK 0.966034
INDEX 01 00:00:00
FILE "09 На обочине.flac" WAVE
TRACK 09 AUDIO
REM REPLAYGAIN_TRACK_GAIN -5.62 dB
REM REPLAYGAIN_TRACK_PEAK 0.966034
INDEX 01 00:00:00
FILE "10 Человек идет.flac" WAVE
TRACK 10 AUDIO
REM REPLAYGAIN_TRACK_GAIN -4.65 dB
REM REPLAYGAIN_TRACK_PEAK 0.966034
INDEX 01 00:00:00
FILE "11 История.flac" WAVE
TRACK 11 AUDIO
REM REPLAYGAIN_TRACK_GAIN -4.81 dB
REM REPLAYGAIN_TRACK_PEAK 0.966034
INDEX 01 00:00:00
FILE "12 R`N`R.flac" WAVE
TRACK 12 AUDIO
REM REPLAYGAIN_TRACK_GAIN -4.89 dB
REM REPLAYGAIN_TRACK_PEAK 0.966034
INDEX 01 00:00:00
FILE "13 Depressive # 13.flac" WAVE
TRACK 13 AUDIO
REM REPLAYGAIN_TRACK_GAIN -4.19 dB
REM REPLAYGAIN_TRACK_PEAK 0.966034
INDEX 01 00:00:00
FILE "14 Одиночество.flac" WAVE
TRACK 14 AUDIO
REM REPLAYGAIN_TRACK_GAIN -6.08 dB
REM REPLAYGAIN_TRACK_PEAK 0.966034
INDEX 01 00:00:00
FILE "15 Немой RAPPP.flac" WAVE
TRACK 15 AUDIO
REM REPLAYGAIN_TRACK_GAIN -6.08 dB
REM REPLAYGAIN_TRACK_PEAK 0.966034
INDEX 01 00:00:00
FILE "16 На катке.flac" WAVE
TRACK 16 AUDIO
REM REPLAYGAIN_TRACK_GAIN -5.22 dB
REM REPLAYGAIN_TRACK_PEAK 0.966034
INDEX 01 00:00:00
FILE "17 Все на ДЖАМП !.flac" WAVE
TRACK 17 AUDIO
REM REPLAYGAIN_TRACK_GAIN -6.25 dB
REM REPLAYGAIN_TRACK_PEAK 0.966034
INDEX 01 00:00:00
FILE "18 Sтепь by Sтепь Around.flac" WAVE
TRACK 18 AUDIO
REM REPLAYGAIN_TRACK_GAIN -2.53 dB
REM REPLAYGAIN_TRACK_PEAK 0.966034
INDEX 01 00:00:00
Другие альбомы группы ВОЛАНД:
"Отражения" (2007)
"Антиформат" (2004)
"Альбомба" (1999)
Не забывайте говорить Спасибо. Не уходите с раздачи!   
Торрент: Зарегистрирован [10 янв 2009, 17:12]
Статус:
Проверен
 
.torrent скачан: 0 раз
Хэш: 1d9a457c559b16651b2f136465f7a1cea81ab3a6
Размер: 344.36 МБ (361 088 582 байт)
   Стать Автором раздачи
   
Цитата
  • Похожие торренты
    Ответы
    Просмотры
    Последнее сообщение

Вернуться в Отечественная рок-музыка (оцифровки)

Кто сейчас на конференции

Сейчас эту тему просматривают: нет зарегистрированных пользователей и гости: 1