(Rock/Alternative) ВОЛАНД - "Альбомба" - (1999), FLAC (tracks), lossless

 Статистика раздачи 
Размер: 322.24 МБ   |  Зарегистрирован: 04 мар 2009, 18:25   |   .torrent скачан: 0 раз
Сидеров: 0  [ 0 байт/сек ]     Личеров: 0  [ 0 байт/сек ]  
  
Аватара пользователя
Главный редактор
Главный редактор
 
Раздал: 90.01 ТБ
Скачал: 3.78 ТБ
Ратио: 24.248
Сообщения: 285991
Стаж: 9 лет 4 месяца 2 дня
Откуда: Санкт-Петербург

ВОЛАНД - "Альбомба" (1999)
Жанр: Rock/Alternative
Год выпуска диска: 1999
Производитель диска: Россия
Аудио кодек: FLAC
Тип рипа: tracks
Битрейт аудио: lossless, 16/44.1
Продолжительность: 54:29
Трэклист:
1. Движение (3:42)
2. Бегу тебе навстречу (3:53)
3. К огню (3:27)
4. Солнце (3:34)
5. Джаз (3:01)
6. Выйти на небо (4:09)
7. Цвет (1:22)
8. Дай (3:30)
9. День (3:23)
10. Vodka-blues (1:21)
11. Над водой (4:15)
12. Улететь (2:44)
13. Депрессив № 13 (3:40)
14. Я вернусь (4:59)
15. Треклист (7:29)
Доп. информация: Доп. информация: ВОЛАНД, рок-группа, г.Кириши (Ленинградская обл).
Первый, полностью русскоязычный альбом группы, для записи которого в группу снова вернулся Сергей Куклин (барабаны).
Данные песни послужили основой концертной программы 1998-2001 г.
Все новости группы здесь http://vk.com/volandband или http://volandband.ru
- Класс состояния винила нет
- Предварительный усилитель линейный тракт студии Yamaha M8X.
- АЦП каскад АЦП Sony MDS-530, оптический SPDIF вход Audigy 2 для сведения и постмастеринга (16/44.1).
- Программа-оцифровщик для сэмплов и потрекового премастеринга - Sound Forge, для прямого сброса и сведения - Acid и Vegas.
- Обработка стандартный набор работ в Vegas, Sound Forge.
- Формат записи (Bit/kHz) 16/44.1>.
- Формат раздачи (Bit/kHz) 16/44.1>.
К Огню


Джаз

REM COMMENT Encoded by FLAC v1.1.4a with FLAC Frontend v1.7.1
TITLE "ВОЛАНД-99 альбомба"
REM REPLAYGAIN_ALBUM_GAIN -0.63 dB
REM REPLAYGAIN_ALBUM_PEAK 1.000000
FILE "01 Движение.flac" WAVE
TRACK 01 AUDIO
REM REPLAYGAIN_TRACK_GAIN -1.23 dB
REM REPLAYGAIN_TRACK_PEAK 1.000000
INDEX 01 00:00:00
FILE "02 Бегу тебе навстречу.flac" WAVE
TRACK 02 AUDIO
REM REPLAYGAIN_TRACK_GAIN -0.69 dB
REM REPLAYGAIN_TRACK_PEAK 1.000000
INDEX 01 00:00:00
FILE "03 К огню.flac" WAVE
TRACK 03 AUDIO
REM REPLAYGAIN_TRACK_GAIN -0.44 dB
REM REPLAYGAIN_TRACK_PEAK 0.989655
INDEX 01 00:00:00
FILE "04 Солнце.flac" WAVE
TRACK 04 AUDIO
REM REPLAYGAIN_TRACK_GAIN -0.34 dB
REM REPLAYGAIN_TRACK_PEAK 1.000000
INDEX 01 00:00:00
FILE "05 Джаз.flac" WAVE
TRACK 05 AUDIO
REM REPLAYGAIN_TRACK_GAIN +0.18 dB
REM REPLAYGAIN_TRACK_PEAK 0.938812
INDEX 01 00:00:00
FILE "06 Выйти на небо.flac" WAVE
TRACK 06 AUDIO
REM REPLAYGAIN_TRACK_GAIN -0.92 dB
REM REPLAYGAIN_TRACK_PEAK 0.981445
INDEX 01 00:00:00
FILE "07 Цвет.flac" WAVE
TRACK 07 AUDIO
REM REPLAYGAIN_TRACK_GAIN -2.49 dB
REM REPLAYGAIN_TRACK_PEAK 0.934235
INDEX 01 00:00:00
FILE "08 Дай.flac" WAVE
TRACK 08 AUDIO
REM REPLAYGAIN_TRACK_GAIN +2.30 dB
REM REPLAYGAIN_TRACK_PEAK 0.831238
INDEX 01 00:00:00
FILE "09 День.flac" WAVE
TRACK 09 AUDIO
REM REPLAYGAIN_TRACK_GAIN -1.02 dB
REM REPLAYGAIN_TRACK_PEAK 0.884979
INDEX 01 00:00:00
FILE "10 Vodka-blues.flac" WAVE
TRACK 10 AUDIO
REM REPLAYGAIN_TRACK_GAIN +0.39 dB
REM REPLAYGAIN_TRACK_PEAK 0.919434
INDEX 01 00:00:00
FILE "11 Над водой.flac" WAVE
TRACK 11 AUDIO
REM REPLAYGAIN_TRACK_GAIN -1.23 dB
REM REPLAYGAIN_TRACK_PEAK 1.000000
INDEX 01 00:00:00
FILE "12 Улететь.flac" WAVE
TRACK 12 AUDIO
REM REPLAYGAIN_TRACK_GAIN -1.56 dB
REM REPLAYGAIN_TRACK_PEAK 0.928467
INDEX 01 00:00:00
FILE "13 Депрессив № 13.flac" WAVE
TRACK 13 AUDIO
REM REPLAYGAIN_TRACK_GAIN -1.78 dB
REM REPLAYGAIN_TRACK_PEAK 0.974579
INDEX 01 00:00:00
FILE "14 Я вернусь.flac" WAVE
TRACK 14 AUDIO
REM REPLAYGAIN_TRACK_GAIN -0.15 dB
REM REPLAYGAIN_TRACK_PEAK 0.979034
INDEX 01 00:00:00
FILE "15 Треклист.flac" WAVE
TRACK 15 AUDIO
REM REPLAYGAIN_TRACK_GAIN +0.62 dB
REM REPLAYGAIN_TRACK_PEAK 0.936707
INDEX 01 00:00:00
Другие альбомы группы ВОЛАНД:
"Антиформат" (2004)
"Отражения" (2007)
"С Нами Музыка!" (2001)
Не забывайте говорить Спасибо. Не уходите с раздачи!   
Торрент: Зарегистрирован [04 мар 2009, 18:25]
Статус:
Проверен
 
.torrent скачан: 0 раз
Хэш: 61fc16f3391882b616678d986c0138cb3f4857ea
Размер: 322.24 МБ (337 889 717 байт)
   Стать Автором раздачи
   
Цитата
  • Похожие торренты
    Ответы
    Просмотры
    Последнее сообщение

Вернуться в Отечественная рок-музыка (оцифровки)

Кто сейчас на конференции

Сейчас эту тему просматривают: нет зарегистрированных пользователей и гости: 1