(Hard Rock)[LP] [24/192] Мозаика / Рубикон - 1987, FLAC (image+.cue)

 Статистика раздачи 
Размер: 1.53 ГБ   |  Зарегистрирован: 16 янв 2013, 07:46   |   .torrent скачан: 0 раз
Сидеров: 0  [ 0 байт/сек ]     Личеров: 0  [ 0 байт/сек ]  
  
Аватара пользователя
Главный редактор
Главный редактор
 
Раздал: 90.01 ТБ
Скачал: 3.78 ТБ
Ратио: 24.248
Сообщения: 284987
Стаж: 9 лет 3 месяца 22 дня
Откуда: Санкт-Петербург

Мозаика / Рубикон
Жанр: Hard Rock
Носитель: LP
Год выпуска: 1987
Лейбл: Мелодия – C60 25437 003
Страна-производитель: USSR
Аудио кодек: FLAC
Тип рипа: image+.cue
Формат записи: 32/192
Формат раздачи: 24/192
Продолжительность: 00:36:45
Треклист:
A1 - Девятый Вал 4:16
A2 - Доброжелатель 2:36
A3 - Без Любви Жить Невозможно 5:36
A4 - Рубикон 5:39
B1 - Всё Перенесёт Человек 4:12
B2 - Беспокойное Солнце 3:17
B3 - Урок Истории 3:30
B4 - Последний Из Людей 6:57
Переоцифрованно с другого оборудования
Источник оцифровки: автором раздачи
Код класса состояния винила: EX+
Устройство воспроизведения:Pioneer PL-30L
Головка звукоснимателя: Denon DL-103M
Предварительный усилитель: NAD PP2iM
АЦП: Xonar Essence STX
Программа-оцифровщик: Sound Forge Pro 10
Обработка:подчистил руч ..
No
Доп. информация:
Мозаика
Drums – Сергей Востоков
Guitar, Vocals – Валерий Шморгунов
Keyboards, Vocals – Валерий Ажажа
Leader, Bass Guitar, Vocals – Ярослав Кеслер
Vocals – Юрий Малистов
Companies etc:
Copyright (c) – ВФГ "Мелодия"
Record Company – Всесоюзная Студия Грамзаписи
Pressed By – Апрелевский Завод Грампластинок
Printed By – Типография АЗГ
© "Мелодия", 1987
Запись 1986 г.
Barcode and Other IdentifiersЎ
Other (Order): Зак. 214-О-20000
Other (Article): 11-1
Other (Price): 2 руб. 50 коп.
REM GENRE Hard Rock
REM DATE 1987
REM yamata6839_VINYLRIP
REM Мелодия – C60 25437 003, USSR
REM Production Manager – Я.Кеслер
REM Engineer – Б.Смирнов
PERFORMER "Мозаика"
TITLE "Рубикон"
FILE "Rubicon.flac" WAVE
TRACK 01 AUDIO
TITLE "Девятый Вал"
PERFORMER "Мозаика"
INDEX 01 00:00:00
TRACK 02 AUDIO
TITLE "Доброжелатель"
PERFORMER "Мозаика"
INDEX 01 04:20:32
TRACK 03 AUDIO
TITLE "Без Любви Жить Невозможно"
PERFORMER "Мозаика"
INDEX 01 07:01:68
TRACK 04 AUDIO
TITLE "Рубикон"
PERFORMER "Мозаика"
INDEX 01 12:43:51
TRACK 05 AUDIO
TITLE "Все Перенесет Человек"
PERFORMER "Мозаика"
INDEX 01 18:27:65
TRACK 06 AUDIO
TITLE "Беспокойное Солнце"
PERFORMER "Мозаика"
INDEX 01 22:45:64
TRACK 07 AUDIO
TITLE "Урок Истории"
PERFORMER "Мозаика"
INDEX 01 26:06:53
TRACK 08 AUDIO
TITLE "Последний Из Людей"
PERFORMER "Мозаика"
INDEX 01 29:39:62
Все материалы представлены исключительно в ознакомительных целях
Не забывайте говорить Спасибо. Не уходите с раздачи!   
Торрент: Зарегистрирован [16 янв 2013, 07:46]
Статус:
Проверен
 
.torrent скачан: 0 раз
Хэш: ca76f88a210599cfc8ee2ff3a175f45378c2fd7e
Размер: 1.53 ГБ (1 639 769 583 байт)
   Стать Автором раздачи
   
Цитата

Вернуться в Отечественная рок-музыка (оцифровки)

Кто сейчас на конференции

Сейчас эту тему просматривают: нет зарегистрированных пользователей и гости: 1