(Rock)[LP] [24/96] Nautilus Pompilius - Родившийся В Эту Ночь - 1991, FLAC (tracks+.cue)

 Статистика раздачи 
Размер: 811.47 МБ   |  Зарегистрирован: 30 июн 2013, 17:11   |   .torrent скачан: 0 раз
Сидеров: 0  [ 0 байт/сек ]     Личеров: 0  [ 0 байт/сек ]  
  
Аватара пользователя
Главный редактор
Главный редактор
 
Раздал: 90.01 ТБ
Скачал: 3.78 ТБ
Ратио: 24.248
Сообщения: 284987
Стаж: 9 лет 3 месяца 22 дня
Откуда: Санкт-Петербург

Nautilus Pompilius - Родившийся В Эту Ночь
Жанр: Rock
Год выпуска: 1991
Лейбл: Russian Disc
Страна-производитель: Russia
Аудио кодек: FLAC
Тип рипа: tracks+.cue
Формат записи: 32/192
Формат раздачи: 24/96
Продолжительность: 40.17 min
Треклист:
01. Родившийся В Эту Ночь
02. Тихие Игры
03. Люди
04. Последний Человек На Земле
05. Бриллиантовые Дороги
06. Она Ждет
07. Музыка На Песке
08. Черные Птици
09. Джульетта
10. Как Падший Ангел
Источник оцифровки: автором раздачи
Код класса состояния винила: Ex
Устройство воспроизведения: Электроника ЭП017С
Головка звукоснимателя: AT-95
Предварительный усилитель: Бриг-001
АЦП: VIA HD audio device
Программа-оцифровщик: Izotope RX 4 Advanced
Обработка: Manual


foobar2000 1.1.10 / Dynamic Range Meter 1.1.1
log date: 2015-01-07 15:26:17
--------------------------------------------------------------------------------
Analyzed: Nautilus Pompilius / Родившийся В Эту Ночь
--------------------------------------------------------------------------------
DR Peak RMS Duration Track
--------------------------------------------------------------------------------
DR18 -0.65 dB -22.29 dB 5:32 ?-Родившийся В Эту Ночь
DR14 -2.71 dB -20.72 dB 3:23 ?-Тихие Игры
DR16 -4.06 dB -24.26 dB 3:24 ?-Люди
DR16 -2.10 dB -20.45 dB 4:00 ?-Последний Человек На Земле
DR15 -8.02 dB -26.43 dB 3:50 ?-Бриллиантовые Дороги
DR15 -1.94 dB -20.31 dB 3:24 ?-Она Ждет
DR15 -1.55 dB -20.57 dB 4:56 ?-Музыка На Песке
DR15 -2.34 dB -22.09 dB 3:21 ?-Черные Птици
DR16 -2.52 dB -23.38 dB 4:50 ?-Джульетта
DR15 -3.76 dB -22.24 dB 3:19 ?-Как Падший Ангел
--------------------------------------------------------------------------------
Number of tracks: 10
Official DR value: DR15
Samplerate: 96000 Hz
Channels: 2
Bits per sample: 24
Bitrate: 2773 kbps
Codec: FLAC
================================================================================
326
ГЗМ-105МД заменен на Audio-Technica AT95
Не забывайте говорить Спасибо. Не уходите с раздачи!   
Торрент: Зарегистрирован [30 июн 2013, 17:11]
Статус:
Проверен
 
.torrent скачан: 0 раз
Хэш: ebe2e87a7fae17d1ab28930b9bdbeefa8abc06d6
Размер: 811.47 МБ (850 892 482 байт)
   Стать Автором раздачи
   
Цитата

Вернуться в Отечественная рок-музыка (оцифровки)

Кто сейчас на конференции

Сейчас эту тему просматривают: нет зарегистрированных пользователей и гости: 1