(Rock/ Punk-Rock) [MC] [16/44,1] Красная плесень - Союз ХХХ. Холодная двадцатка популярных пародий (полная версия) - 2005, APE (image+.cue)

 Статистика раздачи 
Размер: 508.31 МБ   |  Зарегистрирован: 18 июн 2013, 14:05   |   .torrent скачан: 0 раз
Сидеров: 2  [ 0 байт/сек ]     Личеров: 1  [ 0 байт/сек ]  
  
Аватара пользователя
Главный редактор
Главный редактор
 
Раздал: 90.01 ТБ
Скачал: 3.78 ТБ
Ратио: 24.248
Сообщения: 288775
Стаж: 9 лет 5 месяцев 8 дней
Откуда: Санкт-Петербург

Группа Красная плесень - СОЮЗ ХХХ
Холодная двадцатка популярных пародий (полная версия)

Жанр: Rock/ Punk-Rock
Год выпуска: 2005
Лейбл: ОО ИВПОРРТ
Страна-производитель: Россия-Украина
Аудио кодек: APE
Тип рипа: image+.cue
Формат записи: 32/176, 4
Формат раздачи: 16/44,1
Продолжительность: 01:14:16
Трэги в .cue: прописаны
Источник оцифровки: автором раздачи
Код класса состояния магнитоленты: Ex
Устройство воспроизведения: SCD "Technics" RS-TR575
ГМагнитная головка: RFKRSTR979
Предварительный усилитель: AMX - 100 (LTO®)
АЦП: Juli@
Программа-оцифровщик: Adobe Audition CS6 5.0.2.
Обработка: без обработки

01. гр. Штурбанфюрер - Бабушка Прасковья
02. гр. Фруктоза - Козавносе
03. гр. Штурбанфюрер - Утренний дозор
04. гр.ПодаГра - География
05. Кутузов и гр. Марс - Дедушка
06. гр. Дискотека Бавария - Будулай
07. РУСОтуристо - Насморк
08. гр. Животные - Районы, карнизы
09. гр. Ветки - Мюнхенский дождь
10. гр. Суфлекс - Песня про всё
11. Ладзэ - Раздраженья больше нет
12. гр. Дискотека Бавария - Кто пописал на колонки?
13. Серый - Рыжая подруга
14. Бабушки МС - Наш тусняк
15. гр. Вожди - Молодой плешивый
16. Бабушки МС - Когда ухи мне цалуешь
17. Свистящие - А я тут летала
18. гр. Лагуна - Ботаник на пляже 2
19. Пруд Ильзы - Скрутило кишки
20. гр. Обритые Мошенники - Стройбат
21. Фабрика Грёз №7 - Шоколадный глазик
22. гр. Животные - Всё, что ко мне прилипается
23. гр. Пропала Ганда - Дрессировщица
24. Серый - Чёрный зАпор
25. гр. Ветки - Гадил под берёзой
26. Смердючка & Фруктоза - С женихом потела

Код: Выделить всё
REM GENRE Rock/ Punk-Rock
REM DATE 2005
REM COMENT MC, Album, ОО ИВПОРРТ, (Россия-Украина)
TITLE СОЮЗ ХХХ. Холодная двадцатка популярных пародий (полная версия)
PERFORMER Группа Красная плесень
FILE "01. Группа Красная плесень - СОЮЗ ХХХ. Холодная двадцатка популярных пародий (полная версия) - 2005.ape" WAVE
  TRACK 01 AUDIO
    TITLE "01. Бабушка Прасковья"
    PERFORMER гр. Штурбанфюрер
    INDEX 01 00:00:00
  TRACK 02 AUDIO
    TITLE "02. Козавносе"
    PERFORMER  гр. Фруктоза
    INDEX 01 02:44:72
  TRACK 03 AUDIO
    TITLE "03. Утренний дозор"
    PERFORMER гр. Штурбанфюрер
    INDEX 01 04:57:52
  TRACK 04 AUDIO
    TITLE "04. География"
    PERFORMER гр.ПодаГра
    INDEX 01 08:14:02
  TRACK 05 AUDIO
    TITLE "05. Дедушка"
    PERFORMER Кутузов и гр. Марс
    INDEX 01 10:53:72
  TRACK 06 AUDIO
    TITLE "06. Будулай"
    PERFORMER гр. Дискотека Бавария
    INDEX 01 13:57:29
  TRACK 07 AUDIO
    TITLE "07. Насморк"
    PERFORMER РУСОтуристо
    INDEX 01 17:17:68
  TRACK 08 AUDIO
    TITLE "08. Районы, карнизы"
    PERFORMER гр. Животные
    INDEX 01 20:05:34
  TRACK 09 AUDIO
    TITLE "09. Мюнхенский дождь"
    PERFORMER гр. Ветки
    INDEX 01 23:22:63
  TRACK 10 AUDIO
    TITLE "10. Песня про всё"
    PERFORMER гр. Суфлекс
    INDEX 01 26:27:64
  TRACK 11 AUDIO
    TITLE "11. Раздраженья больше нет"
    PERFORMER Ладзэ
    INDEX 01 29:16:63
  TRACK 12 AUDIO
    TITLE "12. Кто пописал на колонки?"
    PERFORMER гр. Дискотека Бавария
    INDEX 01 32:26:34
  TRACK 13 AUDIO
    TITLE "13. Рыжая подруга"
    PERFORMER Серый
    INDEX 01 37:07:55
  TRACK 14 AUDIO
    TITLE "14. Наш тусняк"
    PERFORMER Бабушки МС
    INDEX 01 39:15:36
  TRACK 15 AUDIO
    TITLE "15. Молодой плешивый"
    PERFORMER гр. Вожди
    INDEX 01 41:08:38
  TRACK 16 AUDIO
    TITLE "16. Когда ухи мне цалуешь"
    PERFORMER Бабушки МС
    INDEX 01 44:10:71
  TRACK 17 AUDIO
    TITLE "17. А я тут летала"
    PERFORMER Свистящие
    INDEX 01 46:15:02
  TRACK 18 AUDIO
    TITLE "18. Ботаник на пляже 2"
    PERFORMER гр. Лагуна
    INDEX 01 48:40:32
  TRACK 19 AUDIO
    TITLE "19. Скрутило кишки"
    PERFORMER Пруд Ильзы
    INDEX 01 51:28:27
  TRACK 20 AUDIO
    TITLE "20. Стройбат"
    PERFORMER гр. Обритые Мошенники
    INDEX 01 55:03:46
  TRACK 21 AUDIO
    TITLE "21. Шоколадный глазик"
    PERFORMER Фабрика Грёз №7
    INDEX 01 58:30:44
  TRACK 22 AUDIO
    TITLE "22. Всё, что ко мне прилипается"
    PERFORMER гр. Животные
    INDEX 01 61:16:31
  TRACK 23 AUDIO
    TITLE "23. Дрессировщица"
    PERFORMER гр. Пропала Ганда
    INDEX 01 63:05:24
  TRACK 24 AUDIO
    TITLE "24. Чёрный зАпор"
    PERFORMER Серый
    INDEX 01 65:52:68
  TRACK 25 AUDIO
    TITLE "25. Гадил под берёзой"
    PERFORMER гр. Ветки
    INDEX 01 68:44:68
  TRACK 26 AUDIO
    TITLE "26. С женихом потела"
    PERFORMER Смердючка & Фруктоза
    INDEX 01 71:47:17
В папке раздачи.
Доп. информация: Качество, на мой слух, отличное, а "шумодавом" в паузах поработали ещё до меня.
Заранее приношу извинения за возможно медленную раздачу, увы - особенности провайдера "РосТелеком".
Не забывайте говорить Спасибо. Не уходите с раздачи!   
Торрент: Зарегистрирован [18 июн 2013, 14:05]
Статус:
Проверен
 
.torrent скачан: 0 раз
Хэш: e3eff7cb18f98fa5b7cebd94fbaa84e5cc94e3c8
Размер: 508.31 МБ (533 006 421 байт)
   Стать Автором раздачи
   
Цитата

Вернуться в Отечественная рок-музыка (оцифровки)

Кто сейчас на конференции

Сейчас эту тему просматривают: нет зарегистрированных пользователей и гости: 1