(Rock/Heavy Metal) [2LP] [24/192] Чёрный Кофе (Записи 1987, 1989 гг.) - 1987, 1990, FLAC (image+.cue), (Мелодия С60 26139 006/29491 006)

 Статистика раздачи 
Размер: 2.8 ГБ   |  Зарегистрирован: 23 июл 2011, 17:24   |   .torrent скачан: 0 раз
Сидеров: 0  [ 0 байт/сек ]     Личеров: 0  [ 0 байт/сек ]  
  
Аватара пользователя
Главный редактор
Главный редактор
Я на сайте
 
Раздал: 90.01 ТБ
Скачал: 3.78 ТБ
Ратио: 24.248
Сообщения: 285413
Стаж: 9 лет 3 месяца 28 дней
Откуда: Санкт-Петербург

Материал оцифрован в 24/192 и выложен по просьбе уважаемых }{оттаб и seryi505.
Никакой обработки, включая нормализацию и ручное удаление щелчков, не производилось. Масса шумновата и несёт посторонние механические шумы, которые я первоначально принял за дефекты своего оборудования. Перебрал весь ЭПУ - безрезультатно. Тогда отслушал диски на двух других вертаках - те же звуки, и в тех же местах, слышно их только если на этом концентрироваться и в наушниках. Пластинка 1990 года, на мой слух, несколько глуше звучит, чем 1987, особенно ударные.
Надеюсь, прослушивание будет приятным.
Черный Кофе

Жанр: Rock/Heavy Metal
Годы выпуска: 1987, 1990
Лейбл: Мелодия
Страна-производитель: USSR
Аудио кодек: FLAC
Тип рипа: image+.cue
Формат записи: 32/192
Формат раздачи: 24/192
Общая продолжительность: 01:12:03
Источник оцифровки: автором раздачи
Код класса состояния винила: VG(+) - EX (состояние трэков разное)
Устройство воспроизведения: "Arija - 102"
Предварительный усилитель: "AMX - 100 (LTO®)"
АЦП: Juli@
Программа-оцифровщик: Adobe Audition
Обработка: без обработки
Тэги в .cue sheet: прописаны
Ударные – Сергей Черняков
Гитара – Сергей Кудишин
Вокал, бас-гитара – Игорь Куприянов
Вокал, гитара – Дмитрий Варшавский

Стихи – А. Шаганов* (tracks: А2, В2), Д. Варшавский* (tracks: A1, A3 to B1, B5), И. Куприянов* (tracks: A3, A4), М. Каренов* (tracks: А1, В4)
Музыка – Д. Варшавский* (tracks: A1 to A3, B1 to B5), И. Куприянов* (tracks: A4, B1)
А1 Переступи Порог
А2 Владимирская Русь
А3 Жизни Рассвет
А4 Я Ищу...
В1 Мой Дом (музыка С. Кудишина)
В2 Звездный Водоем
В3 Пылает За Окном Звезда (стихи О. Мандельштама)
В4 Незнакомец
В5 Черный Кофе

REM GENRE Rock/Heavy Metal
REM DATE 1987
REM COMENT Мелодия С60 26139 006 LP
TITLE Переступи Порог
PERFORMER Черный Кофе
FILE "Side 1.flac" WAVE
TRACK 01 AUDIO
TITLE "Переступи Порог"
INDEX 01 00:00:00
TRACK 02 AUDIO
TITLE "Владимирская Русь"
INDEX 01 04:39:73
TRACK 03 AUDIO
TITLE "Жизни Рассвет"
INDEX 01 10:04:03
TRACK 04 AUDIO
TITLE "Я Ищу..."
INDEX 01 13:38:56
FILE "Side 2.flac" WAVE
TRACK 05 AUDIO
TITLE "Мой Дом"
INDEX 01 00:00:00
TRACK 06 AUDIO
TITLE "Звездный Водоем"
INDEX 01 03:40:12
TRACK 07 AUDIO
TITLE "Пылает За Окном Звезда"
INDEX 01 07:09:02
TRACK 08 AUDIO
TITLE "Незнакомец"
INDEX 01 10:10:72
TRACK 09 AUDIO
TITLE "Черный Кофе"
INDEX 01 14:19:50
Бас-гитара – Игорь Куприянов
Ударные – Андрей Перцев
Гитара – Дмитрий Варшавский
Клавишные – Борис Долгих
Вокал – Дмитрий Варшавский, Игорь Куприянов
A1 Брожу По Городу Один
A2 Вольному - Воля...
A3 Ночь
A4 На Последний Поезд
B1 Светлый Образ
B2 И Только Мы...
B3 После Тебя
B4 Ностальгия
B5 Это - Рок!

REM REM GENRE Rock/Heavy Metal
REM DATE 1990
REM COMENT Мелодия C60 29491 006 LP
TITLE Вольному - воля
PERFORMER Черный Кофе
FILE "Side 1.flac" WAVE
TRACK 01 AUDIO
TITLE "Брожу По Городу Один"
INDEX 01 00:00:00
TRACK 02 AUDIO
TITLE "Вольному - Воля..."
INDEX 01 04:32:68
TRACK 03 AUDIO
TITLE "Ночь"
INDEX 01 09:16:26
TRACK 04 AUDIO
TITLE "На Последний Поезд"
INDEX 01 13:17:60
FILE "Side 2.flac" WAVE
TRACK 05 AUDIO
TITLE "Светлый Образ"
INDEX 01 00:00:00
TRACK 06 AUDIO
TITLE "И Только Мы..."
INDEX 01 04:37:42
TRACK 07 AUDIO
TITLE "После Тебя"
INDEX 01 08:24:20
TRACK 08 AUDIO
TITLE "Ностальгия"
INDEX 01 11:39:50
TRACK 09 AUDIO
TITLE "Это - Рок!"
INDEX 01 15:17:31
В папке 03. Samples
Сразу же прошу прощения за медленную раздачу! Заранее сообщаю, что по независящим от меня техническим причинам увеличить её скорость не смогу.
Не забывайте говорить Спасибо. Не уходите с раздачи!   
Торрент: Зарегистрирован [23 июл 2011, 17:24]
Статус:
Проверен
 
.torrent скачан: 0 раз
Хэш: 9f02fc55f81c062be0ad54e130d42417019d02b1
Размер: 2.8 ГБ (3 005 308 433 байт)
   Стать Автором раздачи
   
Цитата
  • Похожие торренты
    Ответы
    Просмотры
    Последнее сообщение

Вернуться в Отечественная рок-музыка (оцифровки)

Кто сейчас на конференции

Сейчас эту тему просматривают: нет зарегистрированных пользователей и гости: 1