(Hard Blues)[LP] [24/192] JIMI / Джими - 1991, FLAC (image+.cue)

 Статистика раздачи 
Размер: 2.01 ГБ   |  Зарегистрирован: 05 ноя 2012, 23:31   |   .torrent скачан: 0 раз
Сидеров: 0  [ 0 байт/сек ]     Личеров: 0  [ 0 байт/сек ]  
  
Аватара пользователя
Главный редактор
Главный редактор
 
Раздал: 90.01 ТБ
Скачал: 3.78 ТБ
Ратио: 24.248
Сообщения: 284987
Стаж: 9 лет 3 месяца 22 дня
Откуда: Санкт-Петербург

Jimi / Джими
О Группе"Проект "Джими" - результат творческой активности московского гитариста Евгения Ушерова. До того, как создать собственный коллектив, Евгений успел поработать с парой очень клёвых коллективов. Впервые на большой сцене он появлился с группой "ЭВМ"и позднее нарезал в очень неплохой, хотя и недопонятой группе "Прима Донна". После того, как в одной из поездок внутри группы вспыхнул конфликт, "Прима Донна" прекратила своё существование и Ушеров занялся формированием "Джими". Весной 1990 года "Джими" в студии "Крокус" сели за запись своего дебютного альбома одного с группой названия. Первоначально "Джими" имели облик квартета, в который входили: вокалист Карен Бабаян, гитарист Евгений Ушеров, басист Алексей Вотинов и ударник Леонид Щербаков. Однако во время записи дебютного диска все партии ударных исполнил известный московский сессионный музыкант Андрей Шатуновский. Запись альбома финансировалась Ованесом Мелик-Пашаевым. Пластинка получилась очень клёвая: на ней хорошо сочетались традиции старого хард-рока а ля семидесятые и виртуозная игра Ушерова. В одной из вещей ("Джими") Ушеров практически воссоздал образ и звучание Хендрикса. Весной "Джими" выступили на фестивале "Монстры рока" и показали там в высшей степени профессиональную программу. Чтобы не ломать впечатления от музыки, весь материал исполняется на английском языке. Финансовые проблемы привели к последующим переменам внутри группы Ушёл вокалист Бабаян, уступив место Ушерову. Чуть позже группа лишилась ударника, место которого в студии снова занял Андрей Шатуновский. В августе 1992 года "Джими" записали свой новый альбом "Джими 2", однако дата выхода диска пока неясна".
("Rock-city", 1993 год, № 5)
Жанр: Hard Blues
Носитель:LP
Год выпуска: 1991
Лейбл: Мелодия – С60 31509 003
Страна-производитель: USSR
Аудио кодек: FLAC
Тип рипа: image+.cue
Формат записи: 24/192
Формат раздачи: 24/192
Продолжительность: 00:42:38
Переоцифрован с другого оборудования
A1 - You Wanna Love Me - Written-By – Е. Ушеров*, К. Бабаян* - 4:46
A2 - Everybody Knows - Music By, Lyrics By – Е. Ушеров* - 3:03
A3 - Bad Girl - Written-By – Е. Ушеров* - 4:45
A4 - I Feel The Heat Of The Night -Written-By – Е. Ушеров*, К. Бабаян* - 4:29
A5 - Jimi - Written-By – Е. Ушеров*, К. Бабаян* - 4:01
B1 - The Night Train - Music By, Lyrics By – Е. Ушеров* - 3:41
B2 - Don't Start This Jealous Fire - Written-By – Е. Ушеров*, К. Бабаян* - 3:14
B3 - Stand By Me Girl - Written-By – Е. Ушеров*, К. Бабаян* - 2:47
B4 - You Can't Take My Freedom - Written-By – Е. Ушеров*, К. Бабаян* - 5:00
B5 - Dragonfly - Written-By – Е. Ушеров*, К. Бабаян* - 5:45
Источник оцифровки: автором раздачи
Код класса состояния винила: EX+
Устройство воспроизведения:Pioneer PL-30L
Головка звукоснимателя: Denon DL-103M
Предварительный усилитель: NAD PP2iM
АЦП: Xonar Essence STX
Программа-оцифровщик: Sound Forge Pro 10
Обработка:подчистил местами + паузы и заход
NO
Доп. информация:
Artwork By – М. Баташева
Bass – Алексей Вотинов
Drums – Леонид Щербаков
Guitar, Arranged By – Евгений Ушеров
Mixed By – В. Глазков*
Photography – В. Пищальникова
Supervised By [Editor] – Ю. Потеенко*
Vocals – Карен Бабаян
Pressed By – Апрелевский Ордена Ленина Завод Грампластинок
Record Company – Всесоюзная Студия Грамзаписи
Performed in English.
Band's name in Russian: Группа "Джими"
© ВТПО «Фирма Мелодия», 1991.
Всесоюзная студия грамзаписи.
Запись студии «Крокус», 1990 год.
1991 Зак. 848. Тираж 17000
Barcode and Other IdentifiersЎ
Matrix / Runout (Side A): С60-31509/1-1 DMM
Matrix / Runout (Side B): С60-31510/1-1 DMM
REM GENRE Hard Blues
REM DATE 1991
REM yamata6839_VINYLRIP
REM Мелодия – С60 31509 003, USSR
REM Supervised By [Editor] – Ю. Потеенко
REM Mixed By – В. Глазков
PERFORMER "JIMI"
TITLE "JIMI"
FILE "Jimi.flac" WAVE
TRACK 01 AUDIO
TITLE "You Wanna Love Me"
PERFORMER "Jimi"
INDEX 01 00:00:00
TRACK 02 AUDIO
TITLE "Ev'rybody Knows."
PERFORMER "Jimi"
INDEX 01 04:54:43
TRACK 03 AUDIO
TITLE "Bad Girl."
PERFORMER "Jimi"
INDEX 01 08:02:45
TRACK 04 AUDIO
TITLE "I Feel the Heat Of The Night"
PERFORMER "Jimi"
INDEX 01 12:56:00
TRACK 05 AUDIO
TITLE "Jimi"
PERFORMER "Jimi"
INDEX 01 17:32:07
TRACK 06 AUDIO
TITLE "The Night Train"
PERFORMER "Jimi"
INDEX 01 21:42:00
TRACK 07 AUDIO
TITLE "Don't Start This Jealous Fire"
PERFORMER "Jimi"
INDEX 01 25:31:00
TRACK 08 AUDIO
TITLE "Stand By Me Gir"
PERFORMER "Jimi"
INDEX 01 28:53:00
TRACK 09 AUDIO
TITLE "Dragonfly"
PERFORMER "Jimi"
INDEX 01 31:47:00
TRACK 010 AUDIO
TITLE "You Can't Take My Freedom"
PERFORMER "Jimi"
INDEX 01 37:39:00
Все материалы представлены исключительно в ознакомительных целях
Не забывайте говорить Спасибо. Не уходите с раздачи!   
Торрент: Зарегистрирован [05 ноя 2012, 23:31]
Статус:
Проверен
 
.torrent скачан: 0 раз
Хэш: a9f8c7c45743c747d89a3b6da17e35fae849b77b
Размер: 2.01 ГБ (2 153 835 460 байт)
   Стать Автором раздачи
   
Цитата

Вернуться в Отечественная рок-музыка (оцифровки)

Кто сейчас на конференции

Сейчас эту тему просматривают: нет зарегистрированных пользователей и гости: 1