(Rock) [LP] [24/96] Бригада С, Аллергии - НЕТ! - 1991, FLAC (tracks)

 Статистика раздачи 
Размер: 878.03 МБ   |  Зарегистрирован: 31 окт 2012, 17:31   |   .torrent скачан: 0 раз
Сидеров: 0  [ 0 байт/сек ]     Личеров: 0  [ 0 байт/сек ]  
  
Аватара пользователя
Главный редактор
Главный редактор
 
Раздал: 90.01 ТБ
Скачал: 3.78 ТБ
Ратио: 24.248
Сообщения: 286171
Стаж: 9 лет 4 месяца 3 дня
Откуда: Санкт-Петербург

Бригада С, Аллергии - НЕТ!
Жанр: Rock
Год выпуска: 1991
Лейбл: SNC
Страна-производитель: СССР
Аудио кодек: FLAC
Тип рипа: tracks
Формат записи: 24/96
Формат раздачи: 24/96
Продолжительность: 41:00
Треклист:
1 Розовый След На Белой Дороге 4:26
2 Шейк (К 70-летию СССР) 3:20
3 Звезда Микрорайона 4:08
4 Эксгибиционист 3:48
5 Аллергия 4:35
6 I Need A Needle 5:00
7 «Рай» 3:14
8 Оглянись! 5:40
9 Дай Мне Руку 6:02
Источник оцифровки: автором раздачи
Код класса состояния винила: Ex- (см. доп инфо)
Устройство воспроизведения: Электроника Б1-01
Головка звукоснимателя: Pioneer PC-3MC
Предварительный усилитель: Ламповый
АЦП: emu0404 usb
Программа-оцифровщик: Sound Forge pro v10
Обработка: ручное удаление щелчков
foobar2000 1.1.9 / Dynamic Range Meter 1.1.1
log date: 2012-11-01 14:29:03
--------------------------------------------------------------------------------
Analyzed: Бригада С / Аллергии-НЕТ!
--------------------------------------------------------------------------------
DR Peak RMS Duration Track
--------------------------------------------------------------------------------
DR14 -3.58 dB -19.58 dB 4:26 ?-A1-Розовый след на белой дороге
DR14 -3.89 dB -19.16 dB 3:20 ?-A2-Шейк (к 70-летию СССР)
DR14 -3.52 dB -20.31 dB 4:13 ?-A3-Звезда микрорайона
DR14 -2.76 dB -19.22 dB 3:51 ?-A4-Эксгибиционист
DR14 -3.50 dB -20.61 dB 4:36 ?-A5-Аллергия
DR15 -2.07 dB -20.03 dB 5:01 ?-B1-I need a needle
DR15 -4.67 dB -21.01 dB 3:16 ?-B2-'РАЙ'
DR14 -4.56 dB -21.94 dB 5:42 ?-B3-Оглянись!
DR14 -2.21 dB -18.77 dB 6:03 ?-B4-Дай мне руку
--------------------------------------------------------------------------------
Number of tracks: 9
Official DR value: DR14
Samplerate: 96000 Hz
Channels: 2
Bits per sample: 24
Bitrate: 3111 kbps
Codec: FLAC
================================================================================
любой трэк
Материал данной раздачи предназначены только для ознакомления. Права в отношении записи принадлежат их законным правообладателям. После ознакомительного прослушивания удалите запись и приобретите лицензионный диск. Скачивая данную раздачу пользователь соглашается с данными условиями использования материала данной раздачи.
В начале 5го трека слышен небольшой дефект диска длиной 30-40 сек. - НЧ шум и потрескивание, не очень громкое, но достаточно заметное.
Не забывайте говорить Спасибо. Не уходите с раздачи!   
Торрент: Зарегистрирован [31 окт 2012, 17:31]
Статус:
Проверен
 
.torrent скачан: 0 раз
Хэш: dc4493361737c60375db99a63d4e0ec52071a0d5
Размер: 878.03 МБ (920 682 555 байт)
   Стать Автором раздачи
   
Цитата

Вернуться в Отечественная рок-музыка (оцифровки)

Кто сейчас на конференции

Сейчас эту тему просматривают: нет зарегистрированных пользователей и гости: 1