(Heavy Metal) [LP][24/192] Ария - Герой асфальта - 1987, FLAC (image+cue)

 Статистика раздачи 
Размер: 1.55 ГБ   |  Зарегистрирован: 04 дек 2010, 13:09   |   .torrent скачан: 0 раз
Сидеров: 0  [ 0 байт/сек ]     Личеров: 0  [ 0 байт/сек ]  
  
Аватара пользователя
Главный редактор
Главный редактор
 
Раздал: 90.01 ТБ
Скачал: 3.78 ТБ
Ратио: 24.248
Сообщения: 284987
Стаж: 9 лет 3 месяца 22 дня
Откуда: Санкт-Петербург

Ария - Герой асфальта
Жанр: Heavy Meta
Год выпуска: 1988
Лейбл: Мелодия
Страна-производитель: СССР
Аудио кодек: FLAC
Тип рипа: image
Формат записи: 24/192
Формат раздачи: 24/192
Продолжительность: 38 минут
Треклист:
1. На службе силы зла
2. Герой асфальта
3. Мертвая зона
4. 1100
5. Улица Роз
6. Баллада о дневнерусском воине
Источник оцифровки: сама
Код класса состояния винила: VG
Устройство воспроизведения: Вега-109
Предварительный усилитель: Вега-109
АЦП: M-Audio Audiophile 192
Программа-оцифровщик: Sony Sound Forge Pro 10
Обработка: Sony Sound Forge Pro 10
Код: Выделить всё
PERFORMER "Ария"
TITLE "Герой асфальта"
FILE "image.flac" WAVE
  TRACK 01 AUDIO
    PERFORMER "Ария"
    TITLE "На службе силы зла"
    INDEX 01 00:00:00
  TRACK 02 AUDIO
    PERFORMER "Ария"
    TITLE "Герой асфальта"
    INDEX 01 07:05:64
  TRACK 03 AUDIO
    PERFORMER "Ария"
    TITLE "Мертвая зона"
    INDEX 01 12:15:21
  TRACK 04 AUDIO
    PERFORMER "Ария"
    TITLE "1100"
    INDEX 01 18:51:57
  TRACK 05 AUDIO
    PERFORMER "Ария"
    TITLE "Улица Роз"
    INDEX 01 23:42:41
  TRACK 06 AUDIO
    PERFORMER "Ария"
    TITLE "Баллада о дневнерусском воине"
    INDEX 01 29:35:46
Не забывайте говорить Спасибо. Не уходите с раздачи!   
Торрент: Зарегистрирован [04 дек 2010, 13:09]
Статус:
Проверен
 
.torrent скачан: 0 раз
Хэш: 3e87c0f958fb7c65c17c18f055f9f78252c9e52a
Размер: 1.55 ГБ (1 666 086 735 байт)
   Стать Автором раздачи
   
Цитата

Вернуться в Отечественная рок-музыка (оцифровки)

Кто сейчас на конференции

Сейчас эту тему просматривают: нет зарегистрированных пользователей и гости: 1