(Rock) Машина Времени - Запись на автодормехбазе №6 (1977) [FLAC (image+cue), lossless]

 Статистика раздачи 
Размер: 499.84 МБ   |  Зарегистрирован: 26 июн 2012, 12:00   |   .torrent скачан: 0 раз
Сидеров: 0  [ 0 байт/сек ]     Личеров: 0  [ 0 байт/сек ]  
  
Аватара пользователя
Главный редактор
Главный редактор
 
Раздал: 90.01 ТБ
Скачал: 3.78 ТБ
Ратио: 24.248
Сообщения: 284987
Стаж: 9 лет 3 месяца 22 дня
Откуда: Санкт-Петербург

Машина Времени - Запись на автодормехбазе №6

Исполнитель: Машина Времени
Альбом: Запись на автодормехбазе №6
Страна: СССР
Лейбл: Студия А
Дата выпуска: 2004(1977)
Жанр: Rock
Формат: FLAC (image+cue)
Битрейт: 883 kbps
Продолжительность: 01:07:43
Источник: Собственный рип диска
Треклист:
01.Вот что странно [00:03:02]
02.Скажем прямо [00:03:28]
03.День рождения [00:03:55]
04.Марионетки [00:03:58]
05.Песня о капитане [00:04:31]
06.Где б найти подругу жизни [00:03:24]
07.Я думал [00:04:11]
08.Битое стекло [00:02:42]
09.Посвящение хорошему знакомому [00:03:18]
10.Гимн забору [00:02:35]
11.Песня о скрипаче [00:02:18]
12.Избавление [00:03:48]
13.Шок [00:02:58]
14.Девятый вал [00:04:44]
15.Белый день [00:04:53]
16.Блюз о безусловном вреде пьянства [00:03:48]
17.Телега [00:02:33]
18.Посвящение Стиви Уандеру [00:04:34]
19.Солдат + представление состава [00:02:54]
Цитата:
Цитата:
В 1977 году «Машина времени» приступает к записи своего, по сути первого магнитоальбома, названия он не имеет, как и Машина не имеет постоянной репетиционной точки, поэтому запись ведётся в первом попавшемся месте, а именно в «ДК Автодормехбазы №6». Запись ведётся на магнитофон Грюндиг, который Макаревич купил на свой первый в жизни авторский гонорар (за участие в фильме «Афоня»). Звукорежиссёром здесь выступает не А.В. Кутиков, а Игорь Клёнов — это вы сразу услышите по очень необычному звуку. Запись длилась около 5 суток, в виде эксперимента и чтобы разбавить гитарный саунд, приглашена духовая секция для которой Кузьминок пишет все аранжировки в течение двух суток. До этого, музыка Машины была явно приблюзована так вот чтобы сделать её более доступной, более танцевальной, так сказать приэстрадить её и были добавлены труба и кларнет (синтезаторов тогда у Машины ещё не было, да не то, что синтезаторов, просто клавиш не было, отсюда на этой записи очень необычный звук и очень своеобразные аранжировки). По признаниям музыкантов им очень мешал звук постоянно работающих двигателей машин (напомню, дело идёт на атодормехбазе), поэтому запись, в основном велась ночью, но даже здесь иногда можно услышать отголоски двигателей. Затем запись была сведена при помощи двух бобинных магниофонов (или катушечных если вам больше нравиться). Одним из них был знаменитый полупрофессиональный магнитофон «Тембр».
В принципе всё готово, запись можно «запускать в народ», но чуть позже, Кутиков который устроился работать уборщицей в речевую студию ГИТИСа настаивает на повторной перезаписи материала, мотивируя это более лучшей аппаратурой (там имелись магнитофоны марки STM). Он же, естественно, становится и звукорежиссёром. Однако его феноменальная способность портить звук делает своё чёрное дело — «Запись в студии ГИТИСа», при одинаковом составе и списке песен отличается от Автодора как карманный фонарик от Солнца. Ну, и, плюс, можно добавить действительно талантливую работу Игоря Клёнова. Далее её копии расходятся по стране со скоростью звука, а вот истинная запись тех лет, к тому же сделанная годом раньше остаётся неизвестной, а А.В. Макаревич не раз заявлял, что эта запись утеряна, ну что же предлагаем вам приобрести этот утерянный раритет.Оформление — классический японский бутлег

Цитата:
Цитата:
Год cемьдеcят воcьмой ознаменовалcя заменой в cекции духовых.
Вмеcто Сеpежи Велицкого в команду пpишел Сеpежа Кузьменок, человек c
могучим здоpовьем, тонкой поэтичеcкой натуpой и тpубой гpаненой, как
cтакан. Пыталиcь cделать запиcь c помощью нашего тогдашнего
звукоpежиccеpа Игоpька Кленова и двух бытовых магнитофонов. Ютилиcь мы в
то вpемя на теppитоpии кpаcного уголка Автодоpмехбазы N 6 (куда только
не заноcило!). Запиcь пpоизводилаcь ночами, когда за окнами не pевели
гpузовики и никто нами не интеpеcовалcя. Получилоcь лучше, чем можно
было ожидать, но запиcь эта у меня не cохpанилаcь.

М15, Все очень просто. Рассказики. -М.: "Огонек" - "Радио и связь". 1991 - 223 с.
V0.99 prebeta 5 from 4. May 2009
Отчёт EAC об извлечении, выполненном 25. июня 2012, 0:40
Машина Времени / Запись на автодормехбазе №6
Дисковод: ATAPI iHAS524 B Adapter: 4 ID: 0
Режим чтения: :
: Да
: Да
: Нет
Коррекция смещения при чтении: : 6
Способность читать области Lead-in и Lead-out : Нет
Заполнение пропущенных сэмплов тишиной : Да
Удаление блоков с тишиной в начале и конце : Нет
: Да
: Встроенный Win32-интерфейс для Win NT/2000
Выходной формат: : Пользовательский кодировщик
: 768 kBit/s
: Высокий
: Нет
: C:\Program Files (x86)\Exact Audio Copy\FLAC\FLAC.EXE
Дополнительные параметры: : -6 -V -T "ARTIST=%a" -T "TITLE=%t" -T "ALBUM=%g" -T "DATE=%y" -T "TRACKNUMBER=%n" -T "GENRE=%m" -T "COMMENT=%e" %s -o %d
Смещение при сжатии: : 0
| | | |
--------------------------------------------
1 | 0:00.00 | 3:02.01 | 0 | 13650
2 | 3:02.01 | 3:28.08 | 13651 | 29258
3 | 6:30.09 | 3:55.05 | 29259 | 46888
4 | 10:25.14 | 3:58.61 | 46889 | 64799
5 | 14:24.00 | 4:31.30 | 64800 | 85154
6 | 18:55.30 | 3:24.24 | 85155 | 100478
7 | 22:19.54 | 4:11.71 | 100479 | 119374
8 | 26:31.50 | 2:42.31 | 119375 | 131555
9 | 29:14.06 | 3:18.10 | 131556 | 146415
10 | 32:32.16 | 2:35.62 | 146416 | 158102
11 | 35:08.03 | 2:18.38 | 158103 | 168490
12 | 37:26.41 | 3:48.61 | 168491 | 185651
13 | 41:15.27 | 2:58.51 | 185652 | 199052
14 | 44:14.03 | 4:44.47 | 199053 | 220399
15 | 48:58.50 | 4:53.19 | 220400 | 242393
16 | 53:51.69 | 3:48.11 | 242394 | 259504
17 | 57:40.05 | 2:33.19 | 259505 | 270998
18 | 60:13.24 | 4:34.74 | 270999 | 291622
19 | 64:48.23 | 2:54.50 | 291623 | 304722
Характеристики диапазона извлечения и сообщения об ошибках
Выбранный диапазон
Имя файла J:\Музыка\МВ\Дормехбаза\Машина Времени - Запись на автодормехбазе №6.wav
Пиковый уровень 43.0 %
Качество диапазона 100.0 %
CRC копии D8010BFC
Копирование... OK
Ошибок не произошло
Конец отчёта


Не забывайте говорить Спасибо. Не уходите с раздачи!   
Торрент: Зарегистрирован [26 июн 2012, 12:00]
Статус:
Проверен
 
.torrent скачан: 0 раз
Хэш: a429a65bafc737390c9d670a6b2b0da93e109de0
Размер: 499.84 МБ (524 115 587 байт)
   Стать Автором раздачи
   
Цитата

Вернуться в Отечественная рок-музыка (оцифровки)

Кто сейчас на конференции

Сейчас эту тему просматривают: нет зарегистрированных пользователей и гости: 1