(Rock) [LP] [24/96] Рок-Ателье Криса Кельми - Мы знаем - 1988, APE (image+.cue)

 Статистика раздачи 
Размер: 805.64 МБ   |  Зарегистрирован: 16 май 2011, 10:52   |   .torrent скачан: 0 раз
Сидеров: 0  [ 0 байт/сек ]     Личеров: 0  [ 0 байт/сек ]  
  
Аватара пользователя
Главный редактор
Главный редактор
 
Раздал: 90.01 ТБ
Скачал: 3.78 ТБ
Ратио: 24.248
Сообщения: 286171
Стаж: 9 лет 4 месяца 3 дня
Откуда: Санкт-Петербург

Рок - Ателье Криса Кельми - "Мы знаем"
Жанр: Rock
Год выпуска: 1989
Лейбл: Мелодия
Страна-производитель: USSR
Аудио кодек: APE
Тип рипа: image .cue
Формат записи: 24/96 stereo
Формат раздачи: 24/96 stereo
Продолжительность: 00:37:19
Источник оцифровки: автором раздачи
Код класса состояния винила: VG
Устройство воспроизведения: "Arija - 102"
Предварительный усилитель: "AMX - 100 (LTO®)"
АЦП: Sound Blaster Audigy
Программа-оцифровщик: WaveLab
Обработка: ручное удаление щелчков
Тэги в .cue: прописаны
A1 Мы знаем (К.Кельми - М.Пушкина)
A2 Альбатрос (К. Кельми - А. Маркевич)
A3 Хамелеон (К. Кельми - М. Пушкина)
A4 В лабиринте (К. Кельми - А. Маркевич)
A5 Спор (К. Кельми - М. Пушкина)
B1 Ночное рандеву (К. Кельми - К. Кавалерьян)
B2 Усталое такси (К. Кельми - А. Маркевич)
B3 Как всегда (К. Кельми - А. Маркевич)
B4 Вниз по реке (К. Кельми - К. Кавалерьян)

#77Состав:
Крис Кельми - клавишные, вокал
Вадим Усланов - вокал
Константин Веретенников - гитара
Александр Багнов - бас-гитара
Эдуард Супрунов - клавишные
Ларион Давыдов - саксофон
Вячеслав Захаров - ударные
Тридцатисекундные сэмплы трэков c каждой стороны пластинки в папке раздачи или [url=http:// СПАМ
REM GENRE Rock
REM DATE 1988
REM COMENT Мелодия С60 27767 008
TITLE Мы знаем
PERFORMER Рок - Ателье Криса Кельми
FILE "Rock-Atelier under Kris Kelmi - We Know - 1989.ape" WAVE
TRACK 01 AUDIO
TITLE "Мы знаем"
INDEX 01 00:00:00
TRACK 02 AUDIO
TITLE "Альбатрос"
INDEX 01 04:21:20
TRACK 03 AUDIO
TITLE "Хамелеон"
INDEX 01 08:02:30
TRACK 04 AUDIO
TITLE "В лабиринте"
INDEX 01 12:11:54
TRACK 05 AUDIO
TITLE "Спор"
INDEX 01 16:14:36
TRACK 06 AUDIO
TITLE "Ночное рандеву"
INDEX 01 19:43:31
TRACK 07 AUDIO
TITLE "Усталое такси"
INDEX 01 24:22:69
TRACK 08 AUDIO
TITLE "Как всегда"
INDEX 01 28:31:72
TRACK 09 AUDIO
TITLE "Вниз по реке"
INDEX 01 33:07:06
Не забывайте говорить Спасибо. Не уходите с раздачи!   
Торрент: Зарегистрирован [16 май 2011, 10:52]
Статус:
Проверен
 
.torrent скачан: 0 раз
Хэш: 26a65d70e9f4b0724d9d925885829ecce802ec28
Размер: 805.64 МБ (844 775 270 байт)
   Стать Автором раздачи
   
Цитата
  • Похожие торренты
    Ответы
    Просмотры
    Последнее сообщение

Вернуться в Отечественная рок-музыка (оцифровки)

Кто сейчас на конференции

Сейчас эту тему просматривают: нет зарегистрированных пользователей и гости: 1