(Heavy Metal) [LP] [24/192] Черный Кофе - Переступи Порог, Вольному - Воля - 1987-1989, WavPack (image+.cue)

 Статистика раздачи 
Размер: 3.11 ГБ   |  Зарегистрирован: 06 мар 2013, 12:06   |   .torrent скачан: 0 раз
Сидеров: 0  [ 0 байт/сек ]     Личеров: 0  [ 0 байт/сек ]  
  
Аватара пользователя
Главный редактор
Главный редактор
 
Раздал: 90.01 ТБ
Скачал: 3.78 ТБ
Ратио: 24.248
Сообщения: 286171
Стаж: 9 лет 4 месяца 3 дня
Откуда: Санкт-Петербург

Черный Кофе - Переступи Порог, Вольному - Воля

Жанр: Heavy Metal
Год выпуска: 1987-1989
Лейбл: Мелодия
Страна-производитель: USSR
Аудио кодек: WavPack
Тип рипа: image+.cue
Формат записи: 24/192
Формат раздачи: 24/192
Продолжительность: 01:11:17
Источник оцифровки: Oleg39
Код класса состояния винила: NM
Устройство воспроизведения: Thorens TD124 mkII + SME 3012 Series II
Головка звукоснимателя: Clearaudio Stradivari
Предварительный усилитель: Van den Hul The Grail (Accumulator driven version)
АЦП: E-MU 0404 USB (ASIO)
Программа-оцифровщик: WaveLab 6
Обработка: Сжатие в wv - Monkey's Audio 4.01, Теги - CUEBeaut 0.4.31.2
#77Треклист:
A1. Переступи Порог (4:28)
A2. Владимирская Русь (5:24)
A3. Жизни Рассвет (3:35)
A4. Я Ищу... (4:29)
B1. Мой Дом (3:26)
B2. Звездный Водоем (3:29)
B3. Пылает За Окном Звезда (3:02)
B4. Незнакомец (4:09)
B5. Черный Кофе (2:46)
Продолжительность: 00:34:47
REM GENRE "Heavy Metal"
REM DATE 1987
REM DISCID С60 26139
REM COMMENT "Мелодия, 1989, Needledrop By Oleg39"
PERFORMER "Черный Кофе"
TITLE "Переступи Порог"
FILE "CHernyj Kofe - 1987 - Perestupi Porog [NLV 24-192].wv" WAVE
TRACK 01 AUDIO
TITLE "Переступи Порог"
PERFORMER "Черный Кофе"
INDEX 01 00:00:00
TRACK 02 AUDIO
TITLE "Владимирская Русь"
PERFORMER "Черный Кофе"
INDEX 01 04:28:00
TRACK 03 AUDIO
TITLE "Жизни Рассвет"
PERFORMER "Черный Кофе"
INDEX 01 09:51:72
TRACK 04 AUDIO
TITLE "Я Ищу..."
PERFORMER "Черный Кофе"
INDEX 01 13:26:45
TRACK 05 AUDIO
TITLE "Мой Дом"
PERFORMER "Черный Кофе"
INDEX 01 17:55:18
TRACK 06 AUDIO
TITLE "Звездный Водоем"
PERFORMER "Черный Кофе"
INDEX 01 21:20:57
TRACK 07 AUDIO
TITLE "Пылает За Окном Звезда"
PERFORMER "Черный Кофе"
INDEX 01 24:49:55
TRACK 08 AUDIO
TITLE "Незнакомец"
PERFORMER "Черный Кофе"
INDEX 01 27:52:00
TRACK 09 AUDIO
TITLE "Черный Кофе"
PERFORMER "Черный Кофе"
INDEX 01 32:00:60
© «МЕЛОДИЯ», 1987
Всесоюзная студия грамзаписи. Запись 1987 г.
Московский опытный завод "Грамзапись"
Зак. 286 Тираж 20000
#77Треклист:
A1. Брожу по городу один (4:19)
A2. Вольному - воля (4:43)
A3. Ночь (4:01)
A4. На последний поезд (4:22)
B1. Светлый образ (4:24)
B2. И только мы... (3:46)
B3. После тебя (3:16)
B4. Ностальгия (3:38)
B5. Это - рок! (4:01)
Продолжительность:00:36:30
REM GENRE "Heavy Metal"
REM DATE 1989
REM DISCID С60 29491
REM COMMENT "Мелодия, 1990, Needledrop By Oleg39"
PERFORMER "Черный Кофе"
TITLE "Вольному - Воля"
FILE "CHernyj Kofe - 1989 - Vol'nomu - Volya [NLV 24-192].wv" WAVE
TRACK 01 AUDIO
TITLE "Брожу по городу один"
PERFORMER "Черный Кофе"
INDEX 01 00:00:00
TRACK 02 AUDIO
TITLE "Вольному - воля"
PERFORMER "Черный Кофе"
INDEX 01 04:19:20
TRACK 03 AUDIO
TITLE "Ночь"
PERFORMER "Черный Кофе"
INDEX 01 09:02:18
TRACK 04 AUDIO
TITLE "На последний поезд"
PERFORMER "Черный Кофе"
INDEX 01 13:03:00
TRACK 05 AUDIO
TITLE "Светлый образ"
PERFORMER "Черный Кофе"
INDEX 01 17:24:69
TRACK 06 AUDIO
TITLE "И только мы..."
PERFORMER "Черный Кофе"
INDEX 01 21:49:15
TRACK 07 AUDIO
TITLE "После тебя"
PERFORMER "Черный Кофе"
INDEX 01 25:35:00
TRACK 08 AUDIO
TITLE "Ностальгия"
PERFORMER "Черный Кофе"
INDEX 01 28:50:45
TRACK 09 AUDIO
TITLE "Это - рок!"
PERFORMER "Черный Кофе"
INDEX 01 32:29:00
© ВТПО «ФИРМА МЕЛОДИЯ», 1990
Всесоюзная студия грамзаписи
Запись 1989 г.
Апрелевский ордена Ленина завод грампластинок
1990 Зак. 690. (Var.- 69) Тираж 40000
Не забывайте говорить Спасибо. Не уходите с раздачи!   
Торрент: Зарегистрирован [06 мар 2013, 12:06]
Статус:
Проверен
 
.torrent скачан: 0 раз
Хэш: bb387d8928682f8fd1ba4ebdeac9f015c8540275
Размер: 3.11 ГБ (3 340 799 052 байт)
   Стать Автором раздачи
   
Цитата
  • Похожие торренты
    Ответы
    Просмотры
    Последнее сообщение

Вернуться в Отечественная рок-музыка (оцифровки)

Кто сейчас на конференции

Сейчас эту тему просматривают: нет зарегистрированных пользователей и гости: 1