(Rock) [MC][16/48] Виктор Цой. Концерт в Новосибирске (спорткомплекс "Север", 13-14 декабря 1988) - FLAC , lossless

 Статистика раздачи 
Размер: 216.34 МБ   |  Зарегистрирован: 29 сен 2009, 17:08   |   .torrent скачан: 0 раз
Сидеров: 0  [ 0 байт/сек ]     Личеров: 0  [ 0 байт/сек ]  
  
Аватара пользователя
Главный редактор
Главный редактор
 
Раздал: 90.01 ТБ
Скачал: 3.78 ТБ
Ратио: 24.248
Сообщения: 284987
Стаж: 9 лет 3 месяца 22 дня
Откуда: Санкт-Петербург

Виктор Цой (группа "Кино"). Концерт в Новосибирске

Жанр: Rock
Год выпуска диска: 1988
Аудио кодек: flac
Битрейт аудио: lossless
Продолжительность: 0:59:13
Трэклист:
1. Последний герой
2. Я ухожу
3. Мы ждем перемен
4. Ночь
5. Война
6. Я люблю этот город
7. Пачка сигарет
8. Играй
9. Печаль
10. Мама
11. Восьмиклассница
12. Электричка
13. Спокойная ночь
14. Троллейбус
15. Группа крови
16. Легенда
17. В наших глазах
18. Алюминиевые огурцы
Код: Выделить всё
REM GENRE Rock
REM DATE 1988
PERFORMER "Кино"
TITLE "Концерт в Новосибирске (13-14.12.88)"
FILE "Концерт в Новосибирске (13-14.12.1988)ll.flac" WAVE
  TRACK 01 AUDIO
    TITLE "Последний герой"
    PERFORMER "Кино"
    INDEX 01 00:00:00
  TRACK 02 AUDIO
    TITLE "Я ухожу"
    PERFORMER "Кино"
    INDEX 01 03:21:18
  TRACK 03 AUDIO
    TITLE "Мы ждем перемен"
    PERFORMER "Кино"
    INDEX 01 06:03:25
  TRACK 04 AUDIO
    TITLE "Ночь"
    PERFORMER "Кино"
    INDEX 01 10:30:00
  TRACK 05 AUDIO
    TITLE "Война"
    PERFORMER "Кино"
    INDEX 01 15:33:00
  TRACK 06 AUDIO
    TITLE "Я люблю этот город"
    PERFORMER "Кино"
    INDEX 01 19:10:00
  TRACK 07 AUDIO
    TITLE "Пачка сигарет"
    PERFORMER "Кино"
    INDEX 01 22:03:00
  TRACK 08 AUDIO
    TITLE "Играй"
    PERFORMER "Кино"
    INDEX 01 24:53:00
  TRACK 09 AUDIO
    TITLE "Печаль"
    PERFORMER "Кино"
    INDEX 01 28:21:07
  TRACK 10 AUDIO
    TITLE "Мама"
    PERFORMER "Кино"
    INDEX 01 31:50:66
  TRACK 11 AUDIO
    TITLE "Восьмиклассница"
    PERFORMER "Кино"
    INDEX 01 34:26:00
  TRACK 12 AUDIO
    TITLE "Электричка"
    PERFORMER "Кино"
    INDEX 01 36:26:22
  TRACK 13 AUDIO
    TITLE "Спокойная ночь"
    PERFORMER "Кино"
    INDEX 01 39:07:00
  TRACK 14 AUDIO
    TITLE "Троллейбус"
    PERFORMER "Кино"
    INDEX 01 43:48:55
  TRACK 15 AUDIO
    TITLE "Группа крови"
    PERFORMER "Кино"
    INDEX 01 46:42:41
  TRACK 16 AUDIO
    TITLE "Легенда"
    PERFORMER "Кино"
    INDEX 01 50:04:07
  TRACK 17 AUDIO
    TITLE "В наших глазах"
    PERFORMER "Кино"
    INDEX 01 53:55:19
  TRACK 18 AUDIO
    TITLE "Алюминиевые огурцы"
    PERFORMER "Кино"
    INDEX 01 56:57:00
Доп. информация: Для тех, кто хочет улучшить самостоятельно - вариант lossless. Оцифровка производилась с кассеты HAILI C-60, купленной в 1989 году при помощи программ NERO WAVE EDITOR и FOOBAR 2000 v0.9.6.9 Воспроизводилась кассета на муз. центре SAMSUNG MAX-KJ-630. Изображения, к сожалению не имеется...
Параметры файла 915 кб/с, 48 КГц
Не забывайте говорить Спасибо. Не уходите с раздачи!   
Торрент: Зарегистрирован [29 сен 2009, 17:08]
Статус:
Проверен
 
.torrent скачан: 0 раз
Хэш: d30dd6b2a070bca25b72ec91cc866333454829cd
Размер: 216.34 МБ (226 851 140 байт)
   Стать Автором раздачи
   
Цитата

Вернуться в Отечественная рок-музыка (оцифровки)

Кто сейчас на конференции

Сейчас эту тему просматривают: нет зарегистрированных пользователей и гости: 1