(Rock)[LP] [24/96] Nautilus Pompilius - Brigade S - 1989, FLAC (tracks+.cue)

 Статистика раздачи 
Размер: 797.71 МБ   |  Зарегистрирован: 30 июн 2013, 10:46   |   .torrent скачан: 0 раз
Сидеров: 0  [ 0 байт/сек ]     Личеров: 0  [ 0 байт/сек ]  
  
Аватара пользователя
Главный редактор
Главный редактор
 
Раздал: 90.01 ТБ
Скачал: 3.78 ТБ
Ратио: 24.248
Сообщения: 288153
Стаж: 9 лет 5 месяцев 3 дня
Откуда: Санкт-Петербург

Nautilus Pompilius - Brigade S
Жанр: Rock
Год выпуска: 1989
Лейбл: Melodya
Страна-производитель: USSR
Аудио кодек: FLAC
Тип рипа: tracks+.cue
Формат записи: 32/192
Формат раздачи: 24/96
Продолжительность: 36.55 min
Треклист:
01. Эта музыка будет вечной
02. Взгляд с экрана
03. Я хочу быть с тобой
04. Шар цвета хаки
05. Круговая порука
06. Я - Фантомас
07. Наследник эпохи
08. Человек в шляпе
09. Бродяга
01. Eternal Music
02. Love From A Screen
03. I Want To Be With You
04. The Khaki Globe
05. Mutual Guarantee
06. I'm Fantomas
07. Epoch Heir
08. A Man In A Hat
09. Hobo
Источник оцифровки: автором раздачи
Код класса состояния винила: Ex
Устройство воспроизведения: Электроника ЭП017С
Головка звукоснимателя: AT-95
Предварительный усилитель: Бриг-001
АЦП: VIA HD audio device
Программа-оцифровщик: Izotope RX 4 Advanced
Обработка: Manual


foobar2000 1.1.10 / Dynamic Range Meter 1.1.1
log date: 2015-01-08 16:41:36
--------------------------------------------------------------------------------
Analyzed: Nautilus Pompilius / Brigade S
--------------------------------------------------------------------------------
DR Peak RMS Duration Track
--------------------------------------------------------------------------------
DR15 -0.93 dB -17.73 dB 4:15 ?-Eternal Music
DR14 -2.20 dB -18.18 dB 4:35 ?-Love From A Screen
DR15 -1.34 dB -20.21 dB 4:08 ?-I Want To Be With You
DR15 -1.99 dB -18.61 dB 2:56 ?-The Khaki Globe
DR15 -2.63 dB -20.40 dB 3:59 ?-Mutual Guarantee
DR14 -3.19 dB -19.75 dB 4:55 ?-I'm Fantomas
DR15 -3.51 dB -20.06 dB 3:56 ?-Epoch Heir
DR15 -2.69 dB -19.66 dB 4:15 ?-A Man In A Hat
DR14 -3.12 dB -20.19 dB 4:11 ?-Hobo
--------------------------------------------------------------------------------
Number of tracks: 9
Official DR value: DR15
Samplerate: 96000 Hz
Channels: 2
Bits per sample: 24
Bitrate: 2905 kbps
Codec: FLAC
================================================================================
ГЗМ-105МД заменен на Audio-Technica AT95
Не забывайте говорить Спасибо. Не уходите с раздачи!   
Торрент: Зарегистрирован [30 июн 2013, 10:46]
Статус:
Проверен
 
.torrent скачан: 0 раз
Хэш: d38e341fdba6d8346d196fd8f826a5eb678cb4f1
Размер: 797.71 МБ (836 463 245 байт)
   Стать Автором раздачи
   
Цитата

Вернуться в Отечественная рок-музыка (оцифровки)

Кто сейчас на конференции

Сейчас эту тему просматривают: нет зарегистрированных пользователей и гости: 1