(Rock) [LP] [24/192] Калинов мост - Выворотень - 1991, WavPack (image+.cue)

 Статистика раздачи 
Размер: 1.68 ГБ   |  Зарегистрирован: 15 мар 2013, 14:42   |   .torrent скачан: 0 раз
Сидеров: 0  [ 0 байт/сек ]     Личеров: 0  [ 0 байт/сек ]  
  
Аватара пользователя
Главный редактор
Главный редактор
 
Раздал: 90.01 ТБ
Скачал: 3.78 ТБ
Ратио: 24.248
Сообщения: 285991
Стаж: 9 лет 4 месяца 2 дня
Откуда: Санкт-Петербург

Калинов мост - Выворотень

Жанр: Rock
Год выпуска: 1991
Лейбл: SNC Records / R60 00419
Страна-производитель: Russia
Аудио кодек: WavPack
Тип рипа: image+.cue
Формат записи: 24/192
Формат раздачи: 24/192
Продолжительность: 00:41:38
Треклист:
A1. Колесо (0:55)
A2. Набекрень голова (4:08)
A3. Венч (4:58)
A4. Вышло так (3:52)
A5. Имя назвать (5:26)
A6. Что нашел (1:13)
B1. Назад в подвалы (4:32)
B2. Гон в полдень (3:53)
B3. Увидеть себя (7:13)
B4. Последняя охота (5:29)
Источник оцифровки: Oleg39
Код класса состояния винила: Ex
Устройство воспроизведения: Thorens TD124 mkII + SME 3012 Series II
Головка звукоснимателя: Clearaudio Stradivari
Предварительный усилитель: Van den Hul The Grail (Accumulator driven version)
АЦП: The Grail (Accumulator driven version) АЦП:
Программа-оцифровщик: WaveLab 6
Обработка: Сжатие в wv - Monkey's Audio 4.01, Теги - CUEBeautifier 0.4.31.2
REM GENRE "Rock"
REM DATE 1995
REM DISCID R60 00419
REM COMMENT "SNC Records, R60 00419, Released 1991, Needledrop By Oleg39"
PERFORMER "Калинов мост"
TITLE "Выворотень"
FILE "Kalinov most - 1995 - Vyvoroten' [NLV 24-192].wv" WAVE
TRACK 01 AUDIO
TITLE "Колесо"
PERFORMER "Калинов мост"
INDEX 01 00:00:00
TRACK 02 AUDIO
TITLE "Набекрень голова"
PERFORMER "Калинов мост"
INDEX 01 00:54:57
TRACK 03 AUDIO
TITLE "Венч"
PERFORMER "Калинов мост"
INDEX 01 05:02:64
TRACK 04 AUDIO
TITLE "Вышло так"
PERFORMER "Калинов мост"
INDEX 01 10:00:50
TRACK 05 AUDIO
TITLE "Имя назвать"
PERFORMER "Калинов мост"
INDEX 01 13:52:23
TRACK 06 AUDIO
TITLE "Что нашел"
PERFORMER "Калинов мост"
INDEX 01 19:17:65
TRACK 07 AUDIO
TITLE "Назад в подвалы"
PERFORMER "Калинов мост"
INDEX 01 20:30:30
TRACK 08 AUDIO
TITLE "Гон в полдень"
PERFORMER "Калинов мост"
INDEX 01 25:02:60
TRACK 09 AUDIO
TITLE "Увидеть себя"
PERFORMER "Калинов мост"
INDEX 01 28:56:00
TRACK 10 AUDIO
TITLE "Последняя охота"
PERFORMER "Калинов мост"
INDEX 01 36:09:00
Не забывайте говорить Спасибо. Не уходите с раздачи!   
Торрент: Зарегистрирован [15 мар 2013, 14:42]
Статус:
Проверен
 
.torrent скачан: 0 раз
Хэш: 07e3fd544db029db297c1d9a58d32e0c8e6903b1
Размер: 1.68 ГБ (1 802 928 505 байт)
   Стать Автором раздачи
   
Цитата
  • Похожие торренты
    Ответы
    Просмотры
    Последнее сообщение

Вернуться в Отечественная рок-музыка (оцифровки)

Кто сейчас на конференции

Сейчас эту тему просматривают: нет зарегистрированных пользователей и гости: 1