(Hardcore) [MC][16/44.1] Белая Горячка – Delirium Extremens Или Экстремальный Бред (demo) - 1996, FLAC (image+.cue)

 Статистика раздачи 
Размер: 300.09 МБ   |  Зарегистрирован: 04 май 2012, 05:02   |   .torrent скачан: 0 раз
Сидеров: 0  [ 0 байт/сек ]     Личеров: 0  [ 0 байт/сек ]  
  
Аватара пользователя
Главный редактор
Главный редактор
 
Раздал: 90.01 ТБ
Скачал: 3.78 ТБ
Ратио: 24.248
Сообщения: 284987
Стаж: 9 лет 3 месяца 22 дня
Откуда: Санкт-Петербург

Белая Горячка – Delirium Extremens Или Экстремальный Бред
Жанр: Hardcore
Год выпуска: 1996
Лейбл: Moon Records
Номер по каталогу: MN-008
Страна-производитель: Украина
Аудио кодек: FLAC
Тип рипа: image+.cue
Формат записи: 32/48.0 (WAV)
Формат раздачи: 16/44.1 (FLAC)
Продолжительность: 43:43
Источник (релизер): Собственный рип с кассеты
Наличие сканов в содержимом раздачи: да
Источник оцифровки: автором раздачи
Код класса состояния кассеты: VG
Устройство воспроизведения: Philips AW569
АЦП: Realtek High Definition Audio, In-Line 5.1
Программа-оцифровщик: Adobe Audition CS5.5
Обработка: Никакой
1. Україна
2. А.А.А. (Ассоциация Анонимных Алкоголиков)
3. Наш Мир
4. Галя
5. Пiсенька
6. Shad Up ( Заткнись!… )
7. Punk & Hard Core
8. Дворовая (Почему земля круглая? Или зачем я сжёг свою тетрадку?)
9. Delirium tremens (белка)
10. Динамо Киев
11. N.I.R.
12. Generation X
13. 20 Years
14. New Songs
15. Грин Грей & Pepsy Cola (Смерть Г.Г.)
Exact Audio Copy V1.0 beta 3 from 29. August 2011
Archivo Log de extracciones desde 29. Marzo 2012, 23:37
Byelaya Goryachka / Delirium Extremens Ili Ekstryemal'nyi Bryed
Usar unidad : HL-DT-STDVD-RAM GH22NP20 Adapter: 0 ID: 0
Modo de Lectura : : Seguro
Utilizar corriente precisa : Sí
Caché de audio por defecto : Sí
Utilizar los punteros C2 : No
Corrección de Desplazamiento de Lectura : : 0
Sobreleer tanto en Lead-In como en Lead-Out : No
Rellenar las muestras faltantes con silencios : Sí
Eliminar silencios inicial y final : No
Muestras nulas usadas en los calculos de CRC : Sí
Interfaz usada : Interfaz propio de Win32 para Windowns NT y 2000
Formato de Salida utilizado : : Compresor definido por el Usuario
Velocidad de bits seleccionada : 768 kBit/s
Calidad : Alta
Añadir ID3 tag : No
linea de comandos del compresor : C:\Program Files\Exact Audio Copy\FLAC\FLAC.EXE
Opciones adicionales en línea de comandos : : -V -8 -T "Date=%year%" -T "Genre=%genre%" %source%
TOC extraídos del CD
Pista | Inicio | Longitud | Inicio del sector | Fin del sector
------------------------------------------------------------------
1 | 0:00.00 | 3:55.38 | 0 | 17662
2 | 3:55.38 | 1:49.71 | 17663 | 25908
3 | 5:45.34 | 3:06.23 | 25909 | 39881
4 | 8:51.57 | 3:01.65 | 39882 | 53521
5 | 11:53.47 | 1:53.62 | 53522 | 62058
6 | 13:47.34 | 2:48.39 | 62059 | 74697
7 | 16:35.73 | 3:22.74 | 74698 | 89921
8 | 19:58.72 | 1:53.74 | 89922 | 98470
9 | 21:52.71 | 2:24.38 | 98471 | 109308
10 | 24:17.34 | 2:16.68 | 109309 | 119576
11 | 26:34.27 | 1:45.33 | 119577 | 127484
12 | 28:19.60 | 4:39.32 | 127485 | 148441
13 | 32:59.17 | 3:04.67 | 148442 | 162308
14 | 36:04.09 | 3:59.61 | 162309 | 180294
15 | 40:03.70 | 3:39.41 | 180295 | 196760
Gama de estados y errores
Seleccionar gama
Nombre de Archivo N:\Musica Descargada\BG-Delirium\ByelayaGoryachka.wav
Nivel Pico 99.9 %
Velocidad de extracción 2.7 X
Gama de Calidad 99.9 %
Comprobación CRC 5208EAB8
Copiar CRC 5208EAB8
Copia OK
Sin Errores
Final del Informe
==== Log checksum D269EF2B33D1B7B3AEB74BE9D88CC971377D53863FCFE8B2B482EC4C8ED87E20 ====
REM GENRE Hardcore
REM DATE 1996
REM DISCID CA0A3F0F
REM COMMENT "ExactAudioCopy v1.0b3"
PERFORMER "Byelaya Goryachka"
TITLE "Delirium Extremens Ili Ekstryemal'nyi Bryed"
FILE "ByelayaGoryachka.flac" WAVE
TRACK 01 AUDIO
TITLE "Ukrayina"
PERFORMER "Byelaya Goryachka"
INDEX 01 00:00:00
TRACK 02 AUDIO
TITLE "A.A.A. (Asotsiatsiya Ananimnyh Alkogolikov)"
PERFORMER "Byelaya Goryachka"
INDEX 01 03:55:38
TRACK 03 AUDIO
TITLE "Nash Mir"
PERFORMER "Byelaya Goryachka"
INDEX 01 05:45:34
TRACK 04 AUDIO
TITLE "Galya"
PERFORMER "Byelaya Goryachka"
INDEX 01 08:51:57
TRACK 05 AUDIO
TITLE "Pisen'ka"
PERFORMER "Byelaya Goryachka"
INDEX 01 11:53:47
TRACK 06 AUDIO
TITLE "Shad Up! (Zatknis'!...)"
PERFORMER "Byelaya Goryachka"
INDEX 01 13:47:34
TRACK 07 AUDIO
TITLE "Punk & Hardcore"
PERFORMER "Byelaya Goryachka"
INDEX 01 16:35:73
TRACK 08 AUDIO
TITLE "Dvorovaya (Pochyemu Zyemlya Kruglaya , Ili Zachyem Ya Szheg Moyu Tyetradku)"
PERFORMER "Byelaya Goryachka"
INDEX 01 19:58:72
TRACK 09 AUDIO
TITLE "Delirium Tremens (Byelka)"
PERFORMER "Byelaya Goryachka"
INDEX 01 21:52:71
TRACK 10 AUDIO
TITLE "Dinamo Kiyev"
PERFORMER "Byelaya Goryachka"
INDEX 01 24:17:34
TRACK 11 AUDIO
TITLE "N.I.R."
PERFORMER "Byelaya Goryachka"
INDEX 01 26:34:27
TRACK 12 AUDIO
TITLE "Generation X"
PERFORMER "Byelaya Goryachka"
INDEX 01 28:19:60
TRACK 13 AUDIO
TITLE "20 Years"
PERFORMER "Byelaya Goryachka"
INDEX 01 32:59:17
TRACK 14 AUDIO
TITLE "New Song"
PERFORMER "Byelaya Goryachka"
INDEX 01 36:04:09
TRACK 15 AUDIO
TITLE "Green Grey & Pepsy Cola (Smyert' G.G.)"
PERFORMER "Byelaya Goryachka"
INDEX 01 40:03:70
Изменения 07.05.2012: Добавлены некоторые данные для общего обозрения.
Не забывайте говорить Спасибо. Не уходите с раздачи!   
Торрент: Зарегистрирован [04 май 2012, 05:02]
Статус:
Проверен
 
.torrent скачан: 0 раз
Хэш: c3274ff05e4598ee2c22f1b5877e925588f4e84d
Размер: 300.09 МБ (314 664 555 байт)
   Стать Автором раздачи
   
Цитата
  • Похожие торренты
    Ответы
    Просмотры
    Последнее сообщение

Вернуться в Отечественная рок-музыка (оцифровки)

Кто сейчас на конференции

Сейчас эту тему просматривают: нет зарегистрированных пользователей и гости: 1