(Thrash metal)[MB][16/44.1] EST -1988/89 (магнит альбомы) - 1989, FLAC (image+.cue), lossless

 Статистика раздачи 
Размер: 413.59 МБ   |  Зарегистрирован: 12 июн 2009, 11:28   |   .torrent скачан: 0 раз
Сидеров: 0  [ 0 байт/сек ]     Личеров: 0  [ 0 байт/сек ]  
  
Аватара пользователя
Главный редактор
Главный редактор
 
Раздал: 90.01 ТБ
Скачал: 3.78 ТБ
Ратио: 24.248
Сообщения: 288153
Стаж: 9 лет 5 месяцев 3 дня
Откуда: Санкт-Петербург

EST - 1988/89(магнит альбомы)
Жанр: Thrash metal
Год выпуска диска: 1989
Производитель диска: СССР
Аудио кодек: FLAC
Тип рипа: image+.cue
Битрейт аудио: lossless
Продолжительность: 00:45
Трэклист:
Electro Shock Therapy 1988
1.Red best
2.Live in Moscow outskirts
3.Алиса
4.Телеги
5.Веселый Джокер
6.Батька Пожелей Коней
7.Перестройка
8.Десять веселых лет
9.Сука
10.Knife
11.Keep your gun in oil
12.Катюша
13.Russian Vodka



Exact Audio Copy V0.99 prebeta 4 from 23. January 2008
Отчёт EAC об извлечении, выполненном 12. июня 2009, 13:32
Unknown Artist / Unknown Title
Дисковод: HL-DT-STBD-RE GGW-H20L Adapter: 3 ID: 0
Режим чтения : Достоверность
Использование точного потока : Да
Отключение кэша аудио : Да
Использование указателей C2 : Нет
Коррекция смещения при чтении : 667
Способность читать области Lead-in и Lead-out : Нет
Заполнение пропущенных сэмплов тишиной : Да
Удаление блоков с тишиной в начале и конце : Нет
При вычислениях CRC использовались нулевые сэмплы : Да
Интерфейс : Встроенный Win32-интерфейс для Win NT/2000
Выходной формат : Внутренние WAV-операции
Формат сэмплов : 44.100 Гц; 16 бит; стерео
TOC извлечённого CD
Трек | Старт | Длительность | Начальный сектор | Конечный сектор
---------------------------------------------------------------------
1 | 0:00.00 | 3:18.46 | 0 | 14895
2 | 3:18.46 | 2:57.35 | 14896 | 28205
3 | 6:16.06 | 2:41.65 | 28206 | 40345
4 | 8:57.71 | 3:06.29 | 40346 | 54324
5 | 12:04.25 | 3:43.40 | 54325 | 71089
6 | 15:47.65 | 2:32.16 | 71090 | 82505
7 | 18:20.06 | 3:36.36 | 82506 | 98741
8 | 21:56.42 | 3:03.59 | 98742 | 112525
9 | 25:00.26 | 2:14.00 | 112526 | 122575
10 | 27:14.26 | 2:49.50 | 122576 | 135300
11 | 30:04.01 | 1:56.68 | 135301 | 144068
12 | 32:00.69 | 4:29.73 | 144069 | 164316
13 | 36:30.67 | 3:05.48 | 164317 | 178239
Характеристики диапазона извлечения и сообщения об ошибках
Выбранный диапазон
Имя файла D:\Unknown Artist - Unknown Title.wav
Пиковый уровень 88.0 %
Качество диапазона 100.0 %
CRC копии A55E5942
Копирование... OK
Ошибок не произошло
Конец отчёта
Russian Vodka 1989
1.Перестройка
2.Телеги
3.Сука
4.Russian Vodka
5.Батька пожелей коней
6.Десять весеых лет
7.Отдай мою судьбу
8.Алиса



23.06.2009 добавлен альбом Russian Vodka 1989
Не забывайте говорить Спасибо. Не уходите с раздачи!   
Торрент: Зарегистрирован [12 июн 2009, 11:28]
Статус:
Проверен
 
.torrent скачан: 0 раз
Хэш: 34739183b9f4f829cc558913d9f6136ddd86a93b
Размер: 413.59 МБ (433 682 002 байт)
   Стать Автором раздачи
   
Цитата

Вернуться в Отечественная рок-музыка (оцифровки)

Кто сейчас на конференции

Сейчас эту тему просматривают: нет зарегистрированных пользователей и гости: 1