(Rock) [MB][16/44.1] Выход - 11й этаж - 1985, WavPack (image+.cue), lossless

 Статистика раздачи 
Размер: 262.64 МБ   |  Зарегистрирован: 31 июл 2013, 12:28   |   .torrent скачан: 0 раз
Сидеров: 0  [ 0 байт/сек ]     Личеров: 0  [ 0 байт/сек ]  
  
Аватара пользователя
Главный редактор
Главный редактор
 
Раздал: 90.01 ТБ
Скачал: 3.78 ТБ
Ратио: 24.248
Сообщения: 285171
Стаж: 9 лет 3 месяца 26 дней
Откуда: Санкт-Петербург

Выход - 11й этаж
Жанр: Rock
Год выпуска: 1985
Лейбл: N/A
Страна-производитель: СССР
Аудио кодек: WavPack
Тип рипа: image+.cue
Формат записи: неизвестно
Формат раздачи: 16/44.1
Продолжительность: 47 м.
Треклист:
1. Я, ты и Муму
2. Куча дерьма
3. Я лечу с 7-го этажа
4. Машка
5. Странный сад
6. Я так торчу с твоих ног
7. Все мы как червяки
8. Вандализм
9. Кому какое дело до нашей любви
10. Он
11. Я не хочу в Америку
12. Диалектика (смикш.)
Источник оцифровки: Агеев
Обработка: не производилась
REM GENRE "Russian Rock"
REM DATE 1985
REM COMMENT "Tape rip by Ageev"
PERFORMER "Выход"
TITLE "11-й этаж"
FILE "Vykhod - 11-j etazh.wv" WAVE
TRACK 01 AUDIO
TITLE "Я, ты и Муму"
PERFORMER "Выход"
INDEX 01 00:00:00
TRACK 02 AUDIO
TITLE "Куча дерьма"
PERFORMER "Выход"
INDEX 01 03:49:60
TRACK 03 AUDIO
TITLE "Я лечу с 7-го этажа"
PERFORMER "Выход"
INDEX 01 08:15:29
TRACK 04 AUDIO
TITLE "Машка"
PERFORMER "Выход"
INDEX 01 12:46:64
TRACK 05 AUDIO
TITLE "Странный сад"
PERFORMER "Выход"
INDEX 01 17:41:60
TRACK 06 AUDIO
TITLE "Я так торчу с твоих ног"
PERFORMER "Выход"
INDEX 01 21:52:12
TRACK 07 AUDIO
TITLE "Все мы как червяки"
PERFORMER "Выход"
INDEX 01 26:05:73
TRACK 08 AUDIO
TITLE "Вандализм"
PERFORMER "Выход"
INDEX 01 28:05:73
TRACK 09 AUDIO
TITLE "Кому какое дело до нашей любви"
PERFORMER "Выход"
INDEX 01 31:47:65
TRACK 10 AUDIO
TITLE "Он"
PERFORMER "Выход"
INDEX 01 37:13:31
TRACK 11 AUDIO
TITLE "Я не хочу в Америку"
PERFORMER "Выход"
INDEX 01 41:16:56
TRACK 12 AUDIO
TITLE "Диалектика (смикш.)"
PERFORMER "Выход"
INDEX 01 45:02:38
Checkers/level.jpg
Checkers/spectr.jpg
cover.jpg
Vykhod - 11-j etazh.cue
Vykhod - 11-j etazh.log
Vykhod - 11-j etazh.wv
Доп. информация: Запись из коллекции Александра Агеева. Обработка не производилась. Раздача в формате iso.wv.
Не забывайте говорить Спасибо. Не уходите с раздачи!   
Торрент: Зарегистрирован [31 июл 2013, 12:28]
Статус:
Проверен
 
.torrent скачан: 0 раз
Хэш: 34a02336c085f0f1dd84169a7cc5bd930e445ba3
Размер: 262.64 МБ (275 396 239 байт)
   Стать Автором раздачи
   
Цитата
  • Похожие торренты
    Ответы
    Просмотры
    Последнее сообщение

Вернуться в Отечественная рок-музыка (оцифровки)

Кто сейчас на конференции

Сейчас эту тему просматривают: нет зарегистрированных пользователей и гости: 1