(Rock) [MB][16/44.1] Выход - Рок-н-ролл не просто возраст - 1986, WavPack (image+.cue), lossless

 Статистика раздачи 
Размер: 252.35 МБ   |  Зарегистрирован: 01 авг 2013, 05:48   |   .torrent скачан: 0 раз
Сидеров: 0  [ 0 байт/сек ]     Личеров: 0  [ 0 байт/сек ]  
  
Аватара пользователя
Главный редактор
Главный редактор
 
Раздал: 90.01 ТБ
Скачал: 3.78 ТБ
Ратио: 24.248
Сообщения: 284987
Стаж: 9 лет 3 месяца 22 дня
Откуда: Санкт-Петербург

Выход - Рок-н-ролл не просто возраст
Жанр: Rock
Год выпуска: 1986
Страна-производитель: СССР
Аудио кодек: WavPack
Тип рипа: image+.cue
Формат записи: неизвестно
Формат раздачи: 16/44.1
Продолжительность: 45 м.
Треклист:
1. Я лечу с 7-го этажа
2. Скажи, мама
3. Люблю пообщаться с умным человеком
4. Просто я с утра сходил в сортир
5. Стоит жить
6. Я детонатор твоей гранаты, бэйба
7. Раздевайся, дорогая!
8. Ляг, детка, ляг
9. Я пытался это сделать с тобой...
10. Компостёр мозгов
11. Сумарь
12.Сайр-Ал-Ибад-Ил-Ал-Меад
Источник оцифровки: третьим лицом
Обработка: не производилась
REM GENRE "Russian Rock"
REM DATE 1986
REM COMMENT "Tape rip by Ageev"
PERFORMER "Выход"
TITLE "Рок-н-ролл не просто возраст"
FILE "Vykhod - Roknroll ne prosto vozrast.wv" WAVE
TRACK 01 AUDIO
TITLE "Я лечу с 7-го этажа"
PERFORMER "Выход"
INDEX 01 00:00:00
TRACK 02 AUDIO
TITLE "Скажи, мама"
PERFORMER "Выход"
INDEX 01 04:02:47
TRACK 03 AUDIO
TITLE "Люблю пообщаться с умным человеком"
PERFORMER "Выход"
INDEX 01 07:51:18
TRACK 04 AUDIO
TITLE "Просто я с утра сходил в сортир"
PERFORMER "Выход"
INDEX 01 12:28:03
TRACK 05 AUDIO
TITLE "Стоит жить"
PERFORMER "Выход"
INDEX 01 20:25:73
TRACK 06 AUDIO
TITLE "Я детонатор твоей гранаты, бэйба"
PERFORMER "Выход"
INDEX 01 24:59:18
TRACK 07 AUDIO
TITLE "Раздевайся, дорогая!"
PERFORMER "Выход"
INDEX 01 28:21:18
TRACK 08 AUDIO
TITLE "Ляг, детка, ляг"
PERFORMER "Выход"
INDEX 01 30:24:18
TRACK 09 AUDIO
TITLE "Я пытался это сделать с тобой..."
PERFORMER "Выход"
INDEX 01 30:55:18
TRACK 10 AUDIO
TITLE "Компостёр мозгов"
PERFORMER "Выход"
INDEX 01 34:41:01
TRACK 11 AUDIO
TITLE "Сумарь"
PERFORMER "Выход"
INDEX 01 36:46:33
TRACK 12 AUDIO
TITLE "Сайр-Ал-Ибад-Ил-Ал-Меад"
PERFORMER "Выход"
INDEX 01 40:15:66
Checkers/level.jpg
Checkers/spectr.jpg
Vykhod - Roknroll ne prosto vozrast.cue
Vykhod - Roknroll ne prosto vozrast.log
Vykhod - Roknroll ne prosto vozrast.wv
Доп. информация: Запись из коллекции Александра Агеева. Обработка не производилась. Раздача в формате iso.wv.
Не забывайте говорить Спасибо. Не уходите с раздачи!   
Торрент: Зарегистрирован [01 авг 2013, 05:48]
Статус:
Проверен
 
.torrent скачан: 0 раз
Хэш: 6c94f0b05252748abb8bdf841b0ec82f89fb3990
Размер: 252.35 МБ (264 608 917 байт)
   Стать Автором раздачи
   
Цитата
  • Похожие торренты
    Ответы
    Просмотры
    Последнее сообщение

Вернуться в Отечественная рок-музыка (оцифровки)

Кто сейчас на конференции

Сейчас эту тему просматривают: нет зарегистрированных пользователей и гости: 1