(Rock) [LP] [24/192] Зоопарк - Музыка для фильма - 1991, WavPack (image+.cue)

 Статистика раздачи 
Размер: 1.4 ГБ   |  Зарегистрирован: 19 апр 2012, 17:33   |   .torrent скачан: 0 раз
Сидеров: 0  [ 0 байт/сек ]     Личеров: 0  [ 0 байт/сек ]  
  
Аватара пользователя
Главный редактор
Главный редактор
 
Раздал: 90.01 ТБ
Скачал: 3.78 ТБ
Ратио: 24.248
Сообщения: 285101
Стаж: 9 лет 3 месяца 25 дней
Откуда: Санкт-Петербург

Зоопарк - Музыка для фильма
Жанр: Rock
Год выпуска: 1991
Лейбл: Петербургская Студия Грамзаписи
Страна-производитель: СССР
Аудио кодек: WavPack
Тип рипа: tracks+.cue
Формат записи: 24/192
Формат раздачи: 24/192
Продолжительность: 00:37:45
Треклист:
01 - Буги-Вуги
02 - Сладкая Н.
03 - Шпионство
04 - Если хочешь
05 - 6 утра
06 - Музыка для фильма
07 - Право на рок
08 - Она была
09 - Выстрелы
10 - Мария
Источник оцифровки: Oleg39
Код класса состояния винила: NM
Устройство воспроизведения: Thorens TD124 mkII + SME 3012 Series II
Предварительный усилитель: Van den Hul The Grail (Accumulator driven version)
АЦП: E-MU 0404 USB (ASIO)
Программа-оцифровщик: WaveLab 6
Обработка: Сжатие в wv - Monkey's Audio 4.01, Теги - CUEBeautifier 0.4.31.2
REM GENRE "Rock"
REM DATE 1994
REM DISCID R60 00653
REM COMMENT "Петербургская Студия Грамзаписи, R60 00653, Needledrop by Oleg39"
PERFORMER "Зоопарк"
TITLE "Музыка для фильма"
FILE "Zoopark - 1994 - Muzyka dlya fil'ma [NLV 24-192].wv" WAVE
TRACK 01 AUDIO
TITLE "Буги-Вуги"
PERFORMER "Зоопарк"
INDEX 01 00:00:00
TRACK 02 AUDIO
TITLE "Сладкая Н."
PERFORMER "Зоопарк"
INDEX 01 02:38:49
TRACK 03 AUDIO
TITLE "Шпионство"
PERFORMER "Зоопарк"
INDEX 01 05:59:57
TRACK 04 AUDIO
TITLE "Если хочешь"
PERFORMER "Зоопарк"
INDEX 01 11:50:36
TRACK 05 AUDIO
TITLE "6 утра"
PERFORMER "Зоопарк"
INDEX 01 14:38:50
TRACK 06 AUDIO
TITLE "Музыка для фильма"
PERFORMER "Зоопарк"
INDEX 01 18:04:50
TRACK 07 AUDIO
TITLE "Право на рок"
PERFORMER "Зоопарк"
INDEX 01 20:55:50
TRACK 08 AUDIO
TITLE "Она была"
PERFORMER "Зоопарк"
INDEX 01 25:12:15
TRACK 09 AUDIO
TITLE "Выстрелы"
PERFORMER "Зоопарк"
INDEX 01 29:04:15
TRACK 10 AUDIO
TITLE "Мария"
PERFORMER "Зоопарк"
INDEX 01 34:19:57
Не забывайте говорить Спасибо. Не уходите с раздачи!   
Торрент: Зарегистрирован [19 апр 2012, 17:33]
Статус:
Проверен
 
.torrent скачан: 0 раз
Хэш: 17ed620f8ceba57139fe78c002a8b7b99eb56c03
Размер: 1.4 ГБ (1 502 865 033 байт)
   Стать Автором раздачи
   
Цитата
  • Похожие торренты
    Ответы
    Просмотры
    Последнее сообщение

Вернуться в Отечественная рок-музыка (оцифровки)

Кто сейчас на конференции

Сейчас эту тему просматривают: нет зарегистрированных пользователей и гости: 1