(Rock) [LP] [24/96] Александр Башлачев - Все будет хорошо - 1990, WavPack (image+.cue)

 Статистика раздачи 
Размер: 686.6 МБ   |  Зарегистрирован: 29 мар 2013, 13:22   |   .torrent скачан: 0 раз
Сидеров: 0  [ 0 байт/сек ]     Личеров: 0  [ 0 байт/сек ]  
  
Аватара пользователя
Главный редактор
Главный редактор
 
Раздал: 90.01 ТБ
Скачал: 3.78 ТБ
Ратио: 24.248
Сообщения: 288153
Стаж: 9 лет 5 месяцев 3 дня
Откуда: Санкт-Петербург

Александр Башлачев - Все будет хорошо

Жанр: Rock
Год выпуска: 1990
Лейбл: Студия Метадиджитал 45 RPM EP MaxiSingl / 5-6 1290
Страна-производитель: USSR
Аудио кодек: WavPack
Тип рипа: image+.cue
Формат записи: 24/96
Формат раздачи: 24/96
Продолжительность: 00:33:12
Треклист:
A1. В чистом поле (4:25)
A2. Петербургская свадьба (6:56)
A3. Спроси звезда (2:53)
B1. Перекур (5:04)
B2. Тесто (4:28)
B3. Сядем рядом (6:17)
B4. Все будет хорошо (3:09)
Источник оцифровки: Oleg39
Код класса состояния винила: Ex
Устройство воспроизведения: Thorens TD124 mkII + SME 3012 Series II
Головка звукоснимателя: Van den Hul Colibri XGW
Предварительный усилитель: Yamaha A1 (Class A)
АЦП: E-MU 0404 USB (ASIO)
Программа-оцифровщик: WaveLab
Обработка: Сжатие в wv - Monkey's Audio 4.01, Теги - CUEBeautifier 0.4.31.2
REM GENRE "Rock"
REM DATE 1990
REM DISCID 5-6 1290
REM COMMENT "Студия Метадиджитал 45 RPM LP; Needledrop By Oleg39"
PERFORMER "Александр Башлачев"
TITLE "Все будет хорошо"
FILE "Aleksandr Bashlachev - 1990 - Vse budet horosho (Vinyl.Rip 24-96) by.Oleg39.wv" WAVE
TRACK 01 AUDIO
TITLE "В чистом поле"
PERFORMER ""
INDEX 01 00:00:00
TRACK 02 AUDIO
TITLE "Петербургская свадьба"
PERFORMER ""
INDEX 01 04:24:50
TRACK 03 AUDIO
TITLE "Спроси звезда"
PERFORMER ""
INDEX 01 11:20:45
TRACK 04 AUDIO
TITLE "Перекур"
PERFORMER ""
INDEX 01 14:13:47
TRACK 05 AUDIO
TITLE "Тесто"
PERFORMER ""
INDEX 01 19:17:50
TRACK 06 AUDIO
TITLE "Сядем рядом"
PERFORMER ""
INDEX 01 23:45:50
TRACK 07 AUDIO
TITLE "Все будет хорошо"
PERFORMER ""
INDEX 01 30:02:50
Не забывайте говорить Спасибо. Не уходите с раздачи!   
Торрент: Зарегистрирован [29 мар 2013, 13:22]
Статус:
Проверен
 
.torrent скачан: 0 раз
Хэш: a34da0b14f6e64e7355b19f9e65f069529c8af78
Размер: 686.6 МБ (719 956 881 байт)
   Стать Автором раздачи
   
Цитата

Вернуться в Отечественная рок-музыка (оцифровки)

Кто сейчас на конференции

Сейчас эту тему просматривают: нет зарегистрированных пользователей и гости: 1