(Rock/Hard Rock) [LP] [24/192] Monomakh group / Группа Мономах - Мономах - 1990, FLAC (image+.cue)

 Статистика раздачи 
Размер: 1.54 ГБ   |  Зарегистрирован: 18 июл 2011, 18:12   |   .torrent скачан: 0 раз
Сидеров: 0  [ 0 байт/сек ]     Личеров: 0  [ 0 байт/сек ]  
  
Аватара пользователя
Главный редактор
Главный редактор
 
Раздал: 90.01 ТБ
Скачал: 3.78 ТБ
Ратио: 24.248
Сообщения: 285812
Стаж: 9 лет 3 месяца 29 дней
Откуда: Санкт-Петербург

Группа "Мономах"
Жанр: Rock/Hard Rock
Год выпуска: 1990*Лейбл: Мелодия (С60 29663 002)*Страна-производитель: USSR
Аудио кодек: FLAC*Тип рипа: image+.cue
Формат записи: 24/192*Формат раздачи: 24/192
Продолжительность: 00:40:26=Источник оцифровки: автором раздачи*Код класса состояния винила: Ex
Устройство воспроизведения: Электроника ЭП 017С*Головка звукоснимателя: ГЗМ – 028 (Корвет)
Предварительный усилитель: "AMX - 100 (LTO®)"*АЦП: Juli@*Программа-оцифровщик:Adobe Audition CS6 5.0.2.
Обработка: "ручное" удаление щелчков*Тэги в .cue sheet: прописаны
Bass – Юрий Гаврилов
Drums – Владимир Роздин
Guitar – Арсен Захаров
Keyboards – Сергей Тушин
Lyrics By – Л. де Грейфф (tracks: В3), А. Захаров (tracks: А1), Б. Чичибабин (tracks: А4), В. Маликов (tracks: А5), В. Сорокин (tracks: А3), В. Козиненко (tracks: В1, В4), Г. Малинцев (tracks: А2), Ю. Гуреев (tracks: В2)
Music By – А. Захаров (tracks: А1, А2, А4, В2), В. Маликов (tracks: А5), В. Сорокин (tracks: А3, В1), Ю. Гаврилов (tracks: В3, В4)
Vocals – Василий Акимов

А1
С Нами Наш Бог (Our God Is With Us)
A2 Покайся, Брат (Confess, Brother)
A3 Мы Полетим С Тобой (We'll Fly With You)
A4 Давайте Что-то Делать (Let's Do Something)
A5 Храни Меня (Save Me)
B1 Я Ждал (I Waited)
B2 Русский Крест (Russian Cross)
B3 Последнее Желание (The Last Wish)
русский текст - С. Гончаренко

B4 Ностальгия (Nostalgia)

Код: Выделить всё
REM GENRE Rock/Hard Rock
REM DATE 1990
REM COMENT Vinyl, LP, Album, Мелодия – С60 29663 002, USSR
TITLE Мономах
PERFORMER Мономах
FILE "01. Side 1.flac" WAVE
  TRACK 01 AUDIO
    TITLE "A1 С Нами Наш Бог"
    INDEX 01 00:00:00
  TRACK 02 AUDIO
    TITLE "A2 Покайся, Брат"
    INDEX 01 05:05:68
  TRACK 03 AUDIO
    TITLE "A3 Мы Полетим С Тобой"
    INDEX 01 08:25:56
  TRACK 04 AUDIO
    TITLE "A4 Давайте Что-то Делать"
    INDEX 01 13:53:62
  TRACK 05 AUDIO
    TITLE "A5 Храни Меня"
    INDEX 01 16:53:46
FILE "02. Side 2.flac" WAVE
  TRACK 06 AUDIO
    TITLE "B1 Я Ждал"
    INDEX 01 00:00:00
  TRACK 07 AUDIO
    TITLE "B2 Русский Крест"
    INDEX 01 05:40:68
  TRACK 08 AUDIO
    TITLE "B3 Последнее Желание"
    INDEX 01 09:00:25
  TRACK 09 AUDIO
    TITLE "B4 Ностальгия"
    INDEX 01 13:21:48
Тридцатисекундные сэмплы с каждой стороны пластинки в папке раздачи.

Большое человеческое спасибо уважаемому boyhunt за техническую поддержку!

Пластинка заново помыта и переоцифрована другой иглой.
Торрент перезалит 03.09.2013.

Обнаружен "мусорный" файл - торрент перезалит 10.09.2013. Приношу свои извинения!
Не забывайте говорить Спасибо. Не уходите с раздачи!   
Торрент: Зарегистрирован [18 июл 2011, 18:12]
Статус:
Проверен
 
.torrent скачан: 0 раз
Хэш: b57bfa61e7c1f244d9cfd64edf2576e54b877c3d
Размер: 1.54 ГБ (1 654 375 976 байт)
   Стать Автором раздачи
   
Цитата

Вернуться в Отечественная рок-музыка (оцифровки)

Кто сейчас на конференции

Сейчас эту тему просматривают: нет зарегистрированных пользователей и гости: 1