(Rock) [LP] [24/192] Зоопарк — Белая полоса - 1988, WavPack (image+.cue)

 Статистика раздачи 
Размер: 1.48 ГБ   |  Зарегистрирован: 19 апр 2012, 17:17   |   .torrent скачан: 0 раз
Сидеров: 0  [ 0 байт/сек ]     Личеров: 0  [ 0 байт/сек ]  
  
Аватара пользователя
Главный редактор
Главный редактор
 
Раздал: 90.01 ТБ
Скачал: 3.78 ТБ
Ратио: 24.248
Сообщения: 284987
Стаж: 9 лет 3 месяца 22 дня
Откуда: Санкт-Петербург

Зоопарк — Белая полоса
Жанр: Rock
Год выпуска: 1988
Лейбл: Мелодия
Страна-производитель: СССР
Аудио кодек: WavPack
Тип рипа: image+.cue
Формат записи: 24/192
Формат раздачи: 24/192
Продолжительность: 00:36:48
Треклист:
01 - Буги-Вуги Каждый День
02 - Белая Полоса
03 - Песня Простого Человека
04 - Когда Я Знал Тебя Совсем Другой
05 - Отель Под Названием 'Брак'
06 - В Этот День
07 - Блюз Субботнего Вечера
08 - Гопники
09 - Хождения
10 - Ночной Гость
11 - Страх в Твоих Глазах
12 - Прощай, Детка (Детка, Прощай)
Источник оцифровки: Oleg39
Код класса состояния винила: Mint
Устройство воспроизведения: Thorens TD124 mkII + SME 3012 Series II
Предварительный усилитель: Van den Hul The Grail (Accumulator driven version)
АЦП: E-MU 0404 USB (ASIO)
Программа-оцифровщик: WaveLab 6
Обработка: Сжатие в wv - Monkey's Audio 4.01, Теги - CUEBeautifier 0.4.31.2
REM GENRE "Rock'N'Roll"
REM DATE 1984
REM DISCID C90 26699 007
REM COMMENT "Мелодия, АОЛЗ, C90 26699 007; Needledrop By Oleg39"
PERFORMER "Зоопарк"
TITLE "Белая Полоса"
FILE "Zoopark - 1984 - Belaya Polosa [NLV 24-192].wv" WAVE
TRACK 01 AUDIO
TITLE "Буги-Вуги Каждый День"
PERFORMER "Зоопарк"
INDEX 01 00:00:00
TRACK 02 AUDIO
TITLE "Белая Полоса"
PERFORMER "Зоопарк"
INDEX 01 02:21:30
TRACK 03 AUDIO
TITLE "Песня Простого Человека"
PERFORMER "Зоопарк"
INDEX 01 05:13:25
TRACK 04 AUDIO
TITLE "Когда Я Знал Тебя Совсем Другой"
PERFORMER "Зоопарк"
INDEX 01 07:58:00
TRACK 05 AUDIO
TITLE "Отель Под Названием 'Брак'"
PERFORMER "Зоопарк"
INDEX 01 10:33:64
TRACK 06 AUDIO
TITLE "В Этот День"
PERFORMER "Зоопарк"
INDEX 01 13:49:50
TRACK 07 AUDIO
TITLE "Блюз Субботнего Вечера"
PERFORMER "Зоопарк"
INDEX 01 17:58:50
TRACK 08 AUDIO
TITLE "Гопники"
PERFORMER "Зоопарк"
INDEX 01 21:50:40
TRACK 09 AUDIO
TITLE "Хождения"
PERFORMER "Зоопарк"
INDEX 01 26:06:00
TRACK 10 AUDIO
TITLE "Ночной Гость"
PERFORMER "Зоопарк"
INDEX 01 28:06:00
TRACK 11 AUDIO
TITLE "Страх в Твоих Глазах"
PERFORMER "Зоопарк"
INDEX 01 30:37:50
TRACK 12 AUDIO
TITLE "Прощай, Детка (Детка, Прощай)"
PERFORMER "Зоопарк"
INDEX 01 34:37:34
Не забывайте говорить Спасибо. Не уходите с раздачи!   
Торрент: Зарегистрирован [19 апр 2012, 17:17]
Статус:
Проверен
 
.torrent скачан: 0 раз
Хэш: e076a581e375a5947259d6963f9b1e4df2d13db1
Размер: 1.48 ГБ (1 586 478 828 байт)
   Стать Автором раздачи
   
Цитата
  • Похожие торренты
    Ответы
    Просмотры
    Последнее сообщение

Вернуться в Отечественная рок-музыка (оцифровки)

Кто сейчас на конференции

Сейчас эту тему просматривают: нет зарегистрированных пользователей и гости: 1