(Alternative Rock, New Wave)[LP] [24/192] Алиса / БлокАда - 1989, FLAC (image+.cue)

 Статистика раздачи 
Размер: 1.6 ГБ   |  Зарегистрирован: 10 май 2013, 20:47   |   .torrent скачан: 0 раз
Сидеров: 0  [ 0 байт/сек ]     Личеров: 0  [ 0 байт/сек ]  
  
Аватара пользователя
Главный редактор
Главный редактор
 
Раздал: 90.01 ТБ
Скачал: 3.78 ТБ
Ратио: 24.248
Сообщения: 285171
Стаж: 9 лет 3 месяца 26 дней
Откуда: Санкт-Петербург

Алиса / БлокАда
Жанр: Alternative Rock, New Wave
Год выпуска: 1989
Лейбл: Мелодия – С60 28425 006
Страна-производитель: USSR
Аудио кодек: FLAC
Тип рипа: image+.cue
Формат записи: 32/192
Формат раздачи: 24/192
Продолжительность: 00:42:30
Треклист:
A1 - Время Менять Имена · It's Time To Change The Names 2:50
A2 - Компромисс · Compromise 4:11
A3 - Солнце Встает · The Sun Is Rising 5:50
A4 - Эй, Ты, Там, На Том Берегу · Hey, You, On The Opposite Bank 2:47
A5 - Ветер Перемен · The Wind Of Changes 4:53
B1 - Красное На Черном · Red On Black 4:59
B2 - Воздух · Air 5:49
B3 - Движение Вспять · Movement Backward 5:14
B4 - Земля · Ground 5:47
Источник оцифровки: автором раздачи
Код класса состояния винила: Ex
Устройство воспроизведения: Pioneer PL-30L
Головка звукоснимателя: AT-13E
Предварительный усилитель: Creec
АЦП: Xonar Essence STX
Программа-оцифровщик: Sound Forge Pro 10
Обработка: --------------------------------------------------
в папке
Доп. информация:
Credits:
Artwork [Painter] – А. Столыпин*
Bass Guitar – Петр Самойлов
Choir – Корпус 2
Drums – Михаил Нефёдов
Engineer – А. Журавлев*, А. Тропилло*, В. Глазков*
Guitar – Андрей Шаталин
Keyboards – Андрей Муратов, Польхан Кондратенко
Liner Notes – Н. Барановская*
Photography By – В. Потапов*
Saxophone – Михаил Чернов
Supervised By [Editor] – О. Глушкова*, Ю. Потеенко*
Trumpet – Дмитрий Чумичев
Vocals – Константин Кинчев, Петр Самойлов
Voice [Demonic] – Андрей Тропилло
Notes:
© «МЕЛОДИЯ», 1989
Всесоюзная студия грамзаписи. Запись 1987 г.
Апрелевский ордена Ленина завод грампластинок
1989 Зак. 193. Тираж 60000.
Alternate title: «Alice» Group - Block Of Hell
Barcode and Other Identifiers:
Other (Price): 2 руб. 50 коп.
Other (Article): 11-1
Other (State Standard): ГОСТ 5289-88
TITLE "БлокАда"
PERFORMER "Алиса"
FILE "БлокАда.flac" WAVE
TRACK 01 AUDIO
TITLE "Время менять имена"
PERFORMER "Алиса"
INDEX 01 00:00:00
TRACK 02 AUDIO
TITLE "Компромисс"
PERFORMER "Алиса"
INDEX 01 03:01:00
TRACK 03 AUDIO
TITLE "Солнце встает"
PERFORMER "Алиса"
INDEX 01 07:12:83
TRACK 04 AUDIO
TITLE "Эй, ты, Там, на том берегу"
PERFORMER "Алиса"
INDEX 01 13:03:00
TRACK 05 AUDIO
TITLE "Ветер перемен"
PERFORMER "Алиса"
INDEX 01 15:55:00
TRACK 06 AUDIO
TITLE "Красное на чёрном"
PERFORMER "Алиса"
INDEX 01 20:51:61
TRACK 07 AUDIO
TITLE "Воздух"
PERFORMER "Алиса"
INDEX 01 25:56:00
TRACK 08 AUDIO
TITLE "Движение вспять"
PERFORMER "Алиса"
INDEX 01 31:46:00
TRACK 09 AUDIO
TITLE "Земля"
PERFORMER "Алиса"
INDEX 01 37:00:00
Шестой Лесничий Все материалы представлены исключительно в ознакомительных целях
Не забывайте говорить Спасибо. Не уходите с раздачи!   
Торрент: Зарегистрирован [10 май 2013, 20:47]
Статус:
Проверен
 
.torrent скачан: 0 раз
Хэш: dff928f2de7aa8aca42b5b23acb2a99a475a478d
Размер: 1.6 ГБ (1 717 045 672 байт)
   Стать Автором раздачи
   
Цитата
  • Похожие торренты
    Ответы
    Просмотры
    Последнее сообщение

Вернуться в Отечественная рок-музыка (оцифровки)

Кто сейчас на конференции

Сейчас эту тему просматривают: нет зарегистрированных пользователей и гости: 1