(Rock) Машина Времени - Концерт в Казани (1981) [FLAC (tracks), lossless]

 Статистика раздачи 
Размер: 324.98 МБ   |  Зарегистрирован: 17 авг 2010, 12:01   |   .torrent скачан: 0 раз
Сидеров: 0  [ 0 байт/сек ]     Личеров: 0  [ 0 байт/сек ]  
  
Аватара пользователя
Главный редактор
Главный редактор
 
Раздал: 90.01 ТБ
Скачал: 3.78 ТБ
Ратио: 24.248
Сообщения: 286171
Стаж: 9 лет 4 месяца 3 дня
Откуда: Санкт-Петербург

Машина Времени - Концерт в Казани

Исполнитель: Машина Времени
Альбом: Концерт в Казани
Страна: СССР
Дата выпуска: декабрь 1981
Жанр: Rock
Формат: FLAC (tracks)
Битрейт: lossless
Продолжительность: 00:45:44
Источник: СD
Доп. информация:
Дворец Спорта. г.Казань. Декабрь 1981г.
Золотой состав Машины Времени:
А. Макаревич - гитара, вокал
А. Кутиков - бас гитара, вокал
П. Подгородецкий - клавишные
В. Ефремов - ударные
А. Заборовский - свет
О. Мелик-Пашаев - звук
Оцифровка не моя, досталась мне на CD.
Треклист:
01. Посвящение театру [00:02:21]
02. Костер [00:03:18]
03. Первые и вторые [00:02:36]
04. Путь (Памяти Джона Леннона) [00:03:48]
05. Кого ты хотел удивить [00:04:27]
06. Представление состава [00:00:31]
07. Новый дом [00:02:52]
08. Кафе ''Лира'' [00:04:12]
09. Старый корабль [00:03:11]
10. Песня солдата [00:01:44]
11. Синяя птица [00:02:18]
12. Старый рок-н-ролл [00:01:45]
13. Скачки [00:02:59]
14. Поворот [00:05:41]
15. Свеча [00:03:53]







Exact Audio Copy V0.99 prebeta 5 from 4. May 2009
Отчёт EAC об извлечении, выполненном 12. августа 2010, 17:22
Машина Времени / Концерт в Казани
Дисковод: Optiarc DVD RW AD-7203A Adapter: 1 ID: 0
Режим чтения : Достоверность
Использование точного потока : Да
Отключение кэша аудио : Да
Использование указателей C2 : Нет
Коррекция смещения при чтении : 48
Способность читать области Lead-in и Lead-out : Нет
Заполнение пропущенных сэмплов тишиной : Да
Удаление блоков с тишиной в начале и конце : Нет
При вычислениях CRC использовались нулевые сэмплы : Да
Интерфейс : Встроенный Win32-интерфейс для Win NT/2000
Обработка зазоров : Не обнаружено, добавлено к предыдущему треку
Выходной формат : Пользовательский кодировщик
Выбранный битрейт : 1024 kBit/s
Качество : Высокий
Добавление ID3-тэга : Да
Утилита сжатия : C:\Program Files\Exact Audio Copy\FLAC\FLAC.EXE
Дополнительные параметры : -8 -V -T "ARTIST=%a" -T "TITLE=%t" -T "ALBUM=%g" -T "DATE=%y" -T "TRACKNUMBER=%n" -T "GENRE=%m" -T "COMMENT=EAC FLAC -8" %s
TOC извлечённого CD
Трек | Старт | Длительность | Начальный сектор | Конечный сектор
---------------------------------------------------------------------
1 | 0:00.00 | 2:21.51 | 0 | 10625
2 | 2:21.51 | 3:18.44 | 10626 | 25519
3 | 5:40.20 | 2:36.59 | 25520 | 37278
4 | 8:17.04 | 3:48.68 | 37279 | 54446
5 | 12:05.72 | 4:27.72 | 54447 | 74543
6 | 16:33.69 | 0:31.09 | 74544 | 76877
7 | 17:05.03 | 2:52.32 | 76878 | 89809
8 | 19:57.35 | 4:12.54 | 89810 | 108763
9 | 24:10.14 | 3:11.16 | 108764 | 123104
10 | 27:21.30 | 1:44.01 | 123105 | 130905
11 | 29:05.31 | 2:18.34 | 130906 | 141289
12 | 31:23.65 | 1:45.23 | 141290 | 149187
13 | 33:09.13 | 2:59.65 | 149188 | 162677
14 | 36:09.03 | 5:41.64 | 162678 | 188316
15 | 41:50.67 | 3:53.16 | 188317 | 205807
Трек 1
Имя файла F:\МУЗЫКА\МУЗЫКА LOSSLESS (flac,APE)\Машина Времени\Машина Времени 1981 декабрь ''Концерт в Казани''\01. Машина Времени – Посвящение театру.wav
Пиковый уровень 100.0 %
Качество трека 100.0 %
CRC теста 5B8E7F81
CRC копии 5B8E7F81
Трек не обнаружен в базе AccurateRip
Копирование... OK
Трек 2
Имя файла F:\МУЗЫКА\МУЗЫКА LOSSLESS (flac,APE)\Машина Времени\Машина Времени 1981 декабрь ''Концерт в Казани''\02. Машина Времени – Костер.wav
Пиковый уровень 100.0 %
Качество трека 99.9 %
CRC теста 757CED60
CRC копии 757CED60
Трек не обнаружен в базе AccurateRip
Копирование... OK
Трек 3
Имя файла F:\МУЗЫКА\МУЗЫКА LOSSLESS (flac,APE)\Машина Времени\Машина Времени 1981 декабрь ''Концерт в Казани''\03. Машина Времени – Первые и вторые.wav
Пиковый уровень 100.0 %
Качество трека 100.0 %
CRC теста 2D4F3A9E
CRC копии 2D4F3A9E
Трек не обнаружен в базе AccurateRip
Копирование... OK
Трек 4
Имя файла F:\МУЗЫКА\МУЗЫКА LOSSLESS (flac,APE)\Машина Времени\Машина Времени 1981 декабрь ''Концерт в Казани''\04. Машина Времени – Путь (Памяти Джона Леннона).wav
Пиковый уровень 100.0 %
Качество трека 100.0 %
CRC теста E5A60985
CRC копии E5A60985
Трек не обнаружен в базе AccurateRip
Копирование... OK
Трек 5
Имя файла F:\МУЗЫКА\МУЗЫКА LOSSLESS (flac,APE)\Машина Времени\Машина Времени 1981 декабрь ''Концерт в Казани''\05. Машина Времени – Кого ты хотел удивить.wav
Пиковый уровень 100.0 %
Качество трека 99.9 %
CRC теста 61B8AE1F
CRC копии 61B8AE1F
Трек не обнаружен в базе AccurateRip
Копирование... OK
Трек 6
Имя файла F:\МУЗЫКА\МУЗЫКА LOSSLESS (flac,APE)\Машина Времени\Машина Времени 1981 декабрь ''Концерт в Казани''\06. Машина Времени – Представление состава.wav
Пиковый уровень 98.8 %
Качество трека 100.0 %
CRC теста 234F119A
CRC копии 234F119A
Трек не обнаружен в базе AccurateRip
Копирование... OK
Трек 7
Имя файла F:\МУЗЫКА\МУЗЫКА LOSSLESS (flac,APE)\Машина Времени\Машина Времени 1981 декабрь ''Концерт в Казани''\07. Машина Времени – Новый дом.wav
Пиковый уровень 100.0 %
Качество трека 100.0 %
CRC теста 8EC7B93B
CRC копии 8EC7B93B
Трек не обнаружен в базе AccurateRip
Копирование... OK
Трек 8
Имя файла F:\МУЗЫКА\МУЗЫКА LOSSLESS (flac,APE)\Машина Времени\Машина Времени 1981 декабрь ''Концерт в Казани''\08. Машина Времени – Кафе ''Лира''.wav
Пиковый уровень 100.0 %
Качество трека 100.0 %
CRC теста F32F8E29
CRC копии F32F8E29
Трек не обнаружен в базе AccurateRip
Копирование... OK
Трек 9
Имя файла F:\МУЗЫКА\МУЗЫКА LOSSLESS (flac,APE)\Машина Времени\Машина Времени 1981 декабрь ''Концерт в Казани''\09. Машина Времени – Старый корабль.wav
Пиковый уровень 100.0 %
Качество трека 100.0 %
CRC теста 15D37FC4
CRC копии 15D37FC4
Трек не обнаружен в базе AccurateRip
Копирование... OK
Трек 10
Имя файла F:\МУЗЫКА\МУЗЫКА LOSSLESS (flac,APE)\Машина Времени\Машина Времени 1981 декабрь ''Концерт в Казани''\10. Машина Времени – Песня солдата.wav
Пиковый уровень 100.0 %
Качество трека 100.0 %
CRC теста 9E50AFCB
CRC копии 9E50AFCB
Трек не обнаружен в базе AccurateRip
Копирование... OK
Трек 11
Имя файла F:\МУЗЫКА\МУЗЫКА LOSSLESS (flac,APE)\Машина Времени\Машина Времени 1981 декабрь ''Концерт в Казани''\11. Машина Времени – Синяя птица.wav
Пиковый уровень 100.0 %
Качество трека 99.9 %
CRC теста 2330F8F0
CRC копии 2330F8F0
Трек не обнаружен в базе AccurateRip
Копирование... OK
Трек 12
Имя файла F:\МУЗЫКА\МУЗЫКА LOSSLESS (flac,APE)\Машина Времени\Машина Времени 1981 декабрь ''Концерт в Казани''\12. Машина Времени – Старый рок-н-ролл.wav
Пиковый уровень 100.0 %
Качество трека 100.0 %
CRC теста 2E8422E7
CRC копии 2E8422E7
Трек не обнаружен в базе AccurateRip
Копирование... OK
Трек 13
Имя файла F:\МУЗЫКА\МУЗЫКА LOSSLESS (flac,APE)\Машина Времени\Машина Времени 1981 декабрь ''Концерт в Казани''\13. Машина Времени – Скачки.wav
Пиковый уровень 100.0 %
Качество трека 100.0 %
CRC теста BE1F4FB1
CRC копии BE1F4FB1
Трек не обнаружен в базе AccurateRip
Копирование... OK
Трек 14
Имя файла F:\МУЗЫКА\МУЗЫКА LOSSLESS (flac,APE)\Машина Времени\Машина Времени 1981 декабрь ''Концерт в Казани''\14. Машина Времени – Поворот.wav
Пиковый уровень 100.0 %
Качество трека 100.0 %
CRC теста 34685DB1
CRC копии 34685DB1
Трек не обнаружен в базе AccurateRip
Копирование... OK
Трек 15
Имя файла F:\МУЗЫКА\МУЗЫКА LOSSLESS (flac,APE)\Машина Времени\Машина Времени 1981 декабрь ''Концерт в Казани''\15. Машина Времени – Свеча.wav
Пиковый уровень 100.0 %
Качество трека 100.0 %
CRC теста 3C846D9D
CRC копии 3C846D9D
Трек не обнаружен в базе AccurateRip
Копирование... OK
Ни одного трека нет в базе AccurateRip
Ошибок не произошло
Конец отчёта
Не забывайте говорить Спасибо. Не уходите с раздачи!   
Торрент: Зарегистрирован [17 авг 2010, 12:01]
Статус:
Проверен
 
.torrent скачан: 0 раз
Хэш: c8bada99858cd16c4b9dc5cdc01e298f0b2cf9eb
Размер: 324.98 МБ (340 761 746 байт)
   Стать Автором раздачи
   
Цитата

Вернуться в Отечественная рок-музыка (оцифровки)

Кто сейчас на конференции

Сейчас эту тему просматривают: нет зарегистрированных пользователей и гости: 1