(Rock) [Micro][24/48] Аквариум - Юбилейный концерт 4.000 лет в Crocus City Hall - 2012, FLAC (image+.cue)

 Статистика раздачи 
Размер: 1.66 ГБ   |  Зарегистрирован: 07 апр 2012, 14:37   |   .torrent скачан: 0 раз
Сидеров: 0  [ 0 байт/сек ]     Личеров: 0  [ 0 байт/сек ]  
  
Аватара пользователя
Главный редактор
Главный редактор
Я на сайте
 
Раздал: 90.01 ТБ
Скачал: 3.78 ТБ
Ратио: 24.248
Сообщения: 285418
Стаж: 9 лет 3 месяца 28 дней
Откуда: Санкт-Петербург

Аквариум / Юбилейный концерт 4.000 лет в Crocus City Hall 2012
Жанр: Rock
Год выпуска: 2012
Лейбл: Собственная оцифровка пользователя ipa
Страна-производитель: Россия
Аудио кодек: FLAC
Тип рипа: image+.cue
Формат записи: 24/96
Формат раздачи: 24/48
Продолжительность: 2:39:52
Треклист:
01. Вступительное слово.
02. Назад в Архангельск.
03. Слова Растамана.
04. Скорбец.
05. 8200.
06. Огонь Вавилона.
07. Небо цвета дождя.
08. Аделаида.
09. Змея.
10. Лошадь.
11. Анютины глазки.
12. Ciaran and Berni (Instrumental).
13. Неизъяснимо.
14. Термозубы (Публичный беспорядок в 4 актах).
15. Марш священных коров.
16. Представление состава группы.
17. Капитан Беллерофонт.
18. Тайный Узбек.
19. Из сияющей пустоты.
20. Пока не начался джаз.
21. Моей звезде.
22. Чай.
23. Она может двигать.
24. Максим-лесник.
25. Небо становится ближе.
26. Сокол.
27. Стаканы.
28. Растаманы из глубинки.
29. Дубровский.
30. Отец яблок.
31. На ход ноги.
32. День Радости.
Источник оцифровки: третьим лицом (пользователь ipa)
Устройство воспроизведения: Omni Condenser Mics
Предварительный усилитель: Omni Condenser Mics
АЦП: TASCAM DR-100
Программа-оцифровщик: Firmware 1.11
Обработка: Audacity Нормализация
REM GENRE Rock
REM DATE 2012
REM COMMENT Юбилейный концерт 4.000 лет в Crocus City Hall 2012.04.06 записано пользователем ipa на TASCAM DR-100
PERFORMER "Аквариум"
TITLE "Юбилейный концерт 4.000 лет в Crocus City Hall"
FILE "2012.04.06 Юбилейный концерт 4.000 лет в Crocus City Hall.flac" WAVE
TRACK 01 AUDIO
TITLE "Вступительное слово"
PERFORMER "Аквариум"
INDEX 01 00:00:00
TRACK 02 AUDIO
TITLE "Назад в Архангельск"
PERFORMER "Аквариум"
INDEX 01 00:35:00
TRACK 03 AUDIO
TITLE "Слова Растамана"
PERFORMER "Аквариум"
INDEX 01 05:48:00
TRACK 04 AUDIO
TITLE "Скорбец"
PERFORMER "Аквариум"
INDEX 01 12:00:00
TRACK 05 AUDIO
TITLE "8200"
PERFORMER "Аквариум"
INDEX 01 16:20:00
TRACK 06 AUDIO
TITLE "Огонь Вавилона"
PERFORMER "Аквариум"
INDEX 01 19:20:00
TRACK 07 AUDIO
TITLE "Небо цвета дождя"
PERFORMER "Аквариум"
INDEX 01 27:48:00
TRACK 08 AUDIO
TITLE "Аделаида"
PERFORMER "Аквариум"
INDEX 01 32:20:00
TRACK 09 AUDIO
TITLE "Я - змея"
PERFORMER "Аквариум"
INDEX 01 38:07:30
TRACK 10 AUDIO
TITLE "Лошадь белая"
PERFORMER "Аквариум"
INDEX 01 44:22:00
TRACK 11 AUDIO
TITLE "Анютины глазки"
PERFORMER "Аквариум"
INDEX 01 46:41:40
TRACK 12 AUDIO
TITLE "Ciaran and Berni (Instrumental)"
PERFORMER "Аквариум"
INDEX 01 50:41:30
TRACK 13 AUDIO
TITLE "Неизъяснимо"
PERFORMER "Аквариум"
INDEX 01 54:35:00
TRACK 14 AUDIO
TITLE "Термозубы (Публичный беспорядок в 4-x актах)"
PERFORMER "Аквариум"
INDEX 01 59:55:00
TRACK 15 AUDIO
TITLE "Марш священных коров"
PERFORMER "Аквариум"
INDEX 01 70:00:00
TRACK 16 AUDIO
TITLE "Представление состава группы"
PERFORMER "Аквариум"
INDEX 01 74:45:00
TRACK 17 AUDIO
TITLE "Капитан Беллерофонт"
PERFORMER "Аквариум"
INDEX 01 77:28:00
TRACK 18 AUDIO
TITLE "Тайный Узбек"
PERFORMER "Аквариум"
INDEX 01 81:20:00
TRACK 19 AUDIO
TITLE "Из сияющей пустоты"
PERFORMER "Аквариум"
INDEX 01 87:58:00
TRACK 20 AUDIO
TITLE "Пока не начался джаз"
PERFORMER "Аквариум"
INDEX 01 93:33:50
TRACK 21 AUDIO
TITLE "Моей звезде"
PERFORMER "Аквариум"
INDEX 01 96:10:00
TRACK 22 AUDIO
TITLE "Чай"
PERFORMER "Аквариум"
INDEX 01 98:50:00
TRACK 23 AUDIO
TITLE "Она может двигать"
PERFORMER "Аквариум"
INDEX 01 101:52:00
TRACK 24 AUDIO
TITLE "Максим-лесник"
PERFORMER "Аквариум"
INDEX 01 108:18:20
TRACK 25 AUDIO
TITLE "Небо становится ближе"
PERFORMER "Аквариум"
INDEX 01 113:31:20
TRACK 26 AUDIO
TITLE "Сокол"
PERFORMER "Аквариум"
INDEX 01 120:50:00
TRACK 27 AUDIO
TITLE "Стаканы"
PERFORMER "Аквариум"
INDEX 01 126:48:00
TRACK 28 AUDIO
TITLE "Растаманы из глубинки"
PERFORMER "Аквариум"
INDEX 01 131:05:00
TRACK 29 AUDIO
TITLE "Дубровский"
PERFORMER "Аквариум"
INDEX 01 134:50:00
TRACK 30 AUDIO
TITLE "Отец яблок"
PERFORMER "Аквариум"
INDEX 01 139:25:00
TRACK 31 AUDIO
TITLE "На ход ноги"
PERFORMER "Аквариум"
INDEX 01 146:30:00
TRACK 32 AUDIO
TITLE "День радости"
PERFORMER "Аквариум"
INDEX 01 154:14:00
Доп. информация : 6 апреля 2012 года на сцене Crocus City Hall АКВАРИУМ "4.000 лет". Запись с микрофона.
Спасибо пользователю egofilippo за .cue и обложку. Спасибо пользователю ipa за предоставленную ОТЛИЧНУЮ! запись. И Спасибо модераторам samopal records и omavkome за советы.
Не забывайте говорить Спасибо. Не уходите с раздачи!   
Торрент: Зарегистрирован [07 апр 2012, 14:37]
Статус:
Проверен
 
.torrent скачан: 0 раз
Хэш: 8d6cb157fada1e5f2907ef68f922abab7f0254c8
Размер: 1.66 ГБ (1 785 186 353 байт)
   Стать Автором раздачи
   
Цитата

Вернуться в Отечественная рок-музыка (оцифровки)

Кто сейчас на конференции

Сейчас эту тему просматривают: нет зарегистрированных пользователей и гости: 1