(rock) [16/44,1] "Аквариум - С той стороны зеркального стекла + Поэма "Иннокентий"" 1976-1982. FLAC (track) - торрент презалит 20.03.12

 Статистика раздачи 
Размер: 147.45 МБ   |  Зарегистрирован: 19 мар 2012, 10:18   |   .torrent скачан: 0 раз
Сидеров: 0  [ 0 байт/сек ]     Личеров: 0  [ 0 байт/сек ]  
  
Аватара пользователя
Главный редактор
Главный редактор
 
Раздал: 90.01 ТБ
Скачал: 3.78 ТБ
Ратио: 24.248
Сообщения: 285615
Стаж: 9 лет 3 месяца 28 дней
Откуда: Санкт-Петербург

"Аквариум - С той стороны зеркального стекла + Поэма "Иннокентий"" 1976-1982.
Жанр: rock
Год выпуска: 1976-1982
Лейбл: Самиздат
Страна-производитель: СССР
Аудио кодек: FLAC
Тип рипа: track
Формат записи: 16/44,1
Формат раздачи: 16/44,1
Продолжительность: 0:44:23
Треклист:
"С той стороны зеркального стекла" (неполный, т. к. не хватает песен: "Сат", "Чит", "Блюз свиньи в ушах", "Ананда"):
01. Блюз НТР
02. Блюз во имя ночи
03. Замок
04. Мост
05. Песня
06. Лето (Инструментал)
07. Незнакомка
08. Танец
09. Переход через (Инструментал)
10. Дитя рассвета
11. Сказка про зверя Аш (Инструментал)
12. С той стороны зеркального стекла
Треклист (неполный, т. к. многие треки с этого альбома отсутствуют) для «Бублик альбом» 22.11.82г. Рок поэма «Иннокентий»:
01. Полтораки Наносит Иннокентию Визит
02. Иннокентий Спасает Одну Или Двух Дев
03. Иннокентий В Горах
04. Иннокентий Едет В Трамвае
05. Иннокентий Созерцает Светила
За трэклисты благодарность KermitTheFrog.
Источник оцифровки: автором раздачи
Устройство воспроизведения: Ламповый катушечник Grundig TK 341 Hi-Fi
АЦП: Creative X-Fi Suround 5.1 (внешняя)
Программа-оцифровщик: Sound Forge 7.0
Обработка: Сжатие во Flack
[spoiler.cue txt:]REM GENRE Rock
REM DATE 1975
PERFORMER "Аквариум"
TITLE "С той стороны зеркального стекла (пленка)"
FILE "Аквариум - С той стороны зеркального стекла.flac" WAVE
TRACK 01 AUDIO
TITLE "Блюз НТР"
PERFORMER "Аквариум"
INDEX 01 00:00:00
TRACK 02 AUDIO
TITLE "Блюз во имя ночи"
PERFORMER "Аквариум"
INDEX 01 03:45:19
TRACK 03 AUDIO
TITLE "Ты мой свет"
PERFORMER "Аквариум"
INDEX 01 06:45:64
TRACK 04 AUDIO
TITLE "Замок"
PERFORMER "Аквариум"
INDEX 01 08:44:43
TRACK 05 AUDIO
TITLE "Мост"
PERFORMER "Аквариум"
INDEX 01 10:21:26
TRACK 06 AUDIO
TITLE "Песня"
PERFORMER "Аквариум"
INDEX 01 12:41:37
TRACK 07 AUDIO
TITLE "Лето (инструментал)"
PERFORMER "Аквариум"
INDEX 01 13:10:00
TRACK 08 AUDIO
TITLE "Незнакомка"
PERFORMER "Аквариум"
INDEX 01 15:20:47
TRACK 09 AUDIO
TITLE "Танец"
PERFORMER "Аквариум"
INDEX 01 17:17:24
TRACK 10 AUDIO
TITLE "Переход через (инструментал)"
PERFORMER "Аквариум"
INDEX 01 19:50:00
TRACK 11 AUDIO
TITLE "Дитя рассвета"
PERFORMER "Аквариум"
INDEX 01 22:05:65
TRACK 12 AUDIO
TITLE "Л.Ю."
PERFORMER "Аквариум"
INDEX 01 23:10:00
TRACK 13 AUDIO
TITLE "Сказка про зверя Аш (инструментал)"
PERFORMER "Аквариум"
INDEX 01 24:11:54
TRACK 14 AUDIO
TITLE "С той стороны зеркального стекла"
PERFORMER "Аквариум"
INDEX 01 25:23:79
TRACK 15 AUDIO
TITLE "Музыка общественных туалетов (дописка)"
PERFORMER "Аквариум"
INDEX 00 28:13:76
INDEX 01 28:22:66Доп. информация: Катушка из коллекции форумчанина сср.Огромная ему благодарность.
Оцифрована одним файлом, у кого есть возможность, сделайте пожалуйста куй и трэклист, я в БГ не спец, увы... Оформление темы сделал на скорую руку, чуть попозже добавлю ещё картинок спектра.
Не забывайте говорить Спасибо. Не уходите с раздачи!   
Торрент: Зарегистрирован [19 мар 2012, 10:18]
Статус:
Проверен
 
.torrent скачан: 0 раз
Хэш: b55a9e98c0fcdc9aab30197c2eefa70705bf499a
Размер: 147.45 МБ (154 611 464 байт)
   Стать Автором раздачи
   
Цитата

Вернуться в Отечественная рок-музыка (оцифровки)

Кто сейчас на конференции

Сейчас эту тему просматривают: нет зарегистрированных пользователей и гости: 1