(Rock) [MC] [16/44,1] Аквариум - 25 История (Live - записано на юбелейных концертах группы 21 и 25 июня 1997 г. в Москве и Петербурге) - 1997, APE (image+.cue), (БГ/Студия Союз SZ0825-97)

 Статистика раздачи 
Размер: 335.46 МБ   |  Зарегистрирован: 09 июн 2011, 10:42   |   .torrent скачан: 0 раз
Сидеров: 0  [ 0 байт/сек ]     Личеров: 0  [ 0 байт/сек ]  
  
Аватара пользователя
Главный редактор
Главный редактор
 
Раздал: 90.01 ТБ
Скачал: 3.78 ТБ
Ратио: 24.248
Сообщения: 285171
Стаж: 9 лет 3 месяца 26 дней
Откуда: Санкт-Петербург

Аквариум - 25 История
Жанр: Rock
Год выпуска: 1997
Лейбл: БГ/Студия Союз
Страна-производитель: Russia
Аудиокодек: APE
Тип рипа: image+.cue
Формат записи: 16/192
Формат раздачи: 16/44,1
Продолжительность: 00:51:32
Источник оцифровки: автором раздачи
Код класса состояния компакткассеты: VG(+)
Устройство воспроизведения: Stereo Cassette Deck "Technics RS-TR575"
Предварительный усилитель: "AMX - 100 (LTO®)"
АЦП: VIA VT17185 (Intel Ibex Peak PCH - High Definition Audio Controller)
Программа-оцифровщик: WaveLab
Обработка: без обработки
Тэги в .cue sheet: прописаны
Из-за поломки и затянувшегося ремонта рабочего компьютера пришлось купить новый. В нём оказалась интегрированная звуковая карта нового поколения с более широкими возможностями, нежели у AC'97. Я решил попробовать с её помощью что-нибудь оцифровать.


Видно, что "срез" частот происходит примерно на 40 килогерцах, так что с частотой дискретизации выше 44,1 раздавать нет смысла. Качество звука на мой взгляд (ухо) получилось вполне достойным.
01. Сентябрь
02. С Той Стороны Зеркального Стекла
03. Шары Из Хрусталя
04. Рыба
05. Стучаться В Двери Травы
06. Сестра
07. Горный Хрусталь
08. Минус Тридцать
09. Железнодорожная Вода
10. Пустые Места
11. Блюз Свиньи В Ушах
12. Она Может Двигать
REM GENRE Rock
REM DATE 1997
REM COMENT [MC] БГ/Студия Союз SZ0825-97
TITLE 25 История
PERFORMER Аквариум
FILE "Akvarium (Live) - 1997.ape" WAVE
TRACK 01 AUDIO
TITLE "Сентябрь"
INDEX 01 00:00:00
TRACK 02 AUDIO
TITLE "С Той Стороны Зеркального Стекла"
INDEX 01 04:08:65
TRACK 03 AUDIO
TITLE "Шары Из Хрусталя"
INDEX 01 07:46:36
TRACK 04 AUDIO
TITLE "Рыба"
INDEX 01 09:43:26
TRACK 05 AUDIO
TITLE "Стучаться В Двери Травы"
INDEX 01 12:30:59
TRACK 06 AUDIO
TITLE "Сестра"
INDEX 01 15:41:16
TRACK 07 AUDIO
TITLE "Горный Хрусталь"
INDEX 01 20:16:56
TRACK 08 AUDIO
TITLE "Минус Тридцать"
INDEX 01 25:38:04
TRACK 09 AUDIO
TITLE "Железнодорожная Вода"
INDEX 01 32:35:64
TRACK 10 AUDIO
TITLE "Пустые места"
INDEX 01 36:55:74
TRACK 11 AUDIO
TITLE "Блюз Свиньи В Ушах"
INDEX 01 43:12:14
TRACK 12 AUDIO
TITLE "Она Может Двигать"
INDEX 01 46:56:05
Не забывайте говорить Спасибо. Не уходите с раздачи!   
Торрент: Зарегистрирован [09 июн 2011, 10:42]
Статус:
Проверен
 
.torrent скачан: 0 раз
Хэш: 107b7982a0c95dbb183d96222db5a562c0693c37
Размер: 335.46 МБ (351 756 018 байт)
   Стать Автором раздачи
   
Цитата

Вернуться в Отечественная рок-музыка (оцифровки)

Кто сейчас на конференции

Сейчас эту тему просматривают: нет зарегистрированных пользователей и гости: 1